img image001 image001 image001 image001 image001 image001 image001 image001 image001 image001 image001 image001 image001 image001 image001

Planets Sun Sun Sun
Статистика раздачи
Автор: Снежана | Размер: 2.18 ГБ | Добавлен: 24 июл 2013
Раздают: 27    Качают: 5
Скачать торрент
Скачать торрент
Описание торрента

СообщениеДобавлено: 24 июл 2013 

#77

Информация о фильме
Название: Путешествие с домашними животными
Год выхода: 2007
Жанр: Мелодрама, драма
Режиссер: Вера Сторожева
В ролях: Дмитрий Дюжев, Анна Михалкова, Михаил Ефремов, Ксения Кутепова

О фильме:
Это история Натальи, "проданной" замуж в 16 лет прямо из детского дома. Тяжелое 19-летнее одиночество "вдвоем" с нелюбимым, ограниченным и жестоким человеком в доме на заброшенном полустанке заканчивается вместе со смертью нелюбимого мужа. Наталья преображается на глазах, открывая для себя мир, свободный от представлений и привычек, навязанных чужой силой и волей. А встреча с Сергеем - водителем грузовика, наполняет ее жизнь ожиданием любви.

Страна: Россия
Студия: Кинокомпания "Слон"
Продолжительность: 01:36:13
Перевод: не требуется

Файл
Кодек: h.264
Качество: DVDRip-AVC
Видео: 704x448 (2.2:1) @ 992x448 (анаморф), 25.000 fps, AVC, ~2598 Kbps, 0.329 bits/pixel
Звук:
1) Русский 48.0 KHz, AC3, 5.1 ch, 448 Kbps
2) Русский, 48.0 KHz, AC3, 2 ch, 192 Kbps

Субтитры: нет

Источник - R5 DVD9.

Общее
Уникальный идентификатор : 195912978498831450366551580908686501339 (0x9363779902978A1481785A26145D65DB)
Полное имя : E:FilmsPuteshestvie_s_domashnimi_zhivotnimi.2007.DVDRip-AVC.mkv
Формат : Matroska
Версия формата : Version 4 / Version 2
Размер файла : 2,18 Гбайт
Продолжительность : 1 ч. 36 м.
Общий поток : 3240 Кбит/сек
Дата кодирования : UTC 2013-02-23 17:54:36
Программа кодирования : mkvmerge v6.0.0 ('Coming Up For Air') built on Jan 20 2013 09:52:00
Библиотека кодирования : libebml v1.3.0 + libmatroska v1.4.0

Видео
Идентификатор : 1
Формат : AVC
Формат/Информация : Advanced Video Codec
Профиль формата : High@L4.1
Параметр CABAC формата : Да
Параметр ReFrames формата : 8 кадров
Идентификатор кодека : V_MPEG4/ISO/AVC
Продолжительность : 1 ч. 36 м.
Битрейт : 2598 Кбит/сек
Ширина : 704 пикселя
Высота : 448 пикселей
Соотношение сторон : 2,2:1
Соотношение сторон в оригинале : 2,2:1
Режим частоты кадров : Постоянный
Частота кадров : 25,000 кадров/сек
Цветовое пространство : YUV
Субдискретизация насыщенности : 4:2:0
Битовая глубина : 8 бит
Тип развёртки : Прогрессивная
Бит/(Пиксели*Кадры) : 0.329
Размер потока : 1,70 Гбайт (78%)
Библиотека кодирования : x264 core 129 r2245 bc13772
Настройки программы : cabac=1 / ref=8 / deblock=1:-1:-1 / analyse=0x3:0x133 / me=umh / subme=9 / psy=1 / psy_rd=1.00:0.15 / mixed_ref=1 / me_range=16 / chroma_me=1 / trellis=2 / 8x8dct=1 / cqm=0 / deadzone=21,11 / fast_pskip=1 / chroma_qp_offset=-3 / threads=8 / lookahead_threads=1 / sliced_threads=0 / nr=0 / decimate=1 / interlaced=0 / bluray_compat=0 / constrained_intra=0 / bframes=3 / b_pyramid=2 / b_adapt=2 / b_bias=0 / direct=3 / weightb=1 / open_gop=0 / weightp=2 / keyint=250 / keyint_min=25 / scenecut=40 / intra_refresh=0 / rc_lookahead=60 / rc=2pass / mbtree=1 / bitrate=2598 / ratetol=1.0 / qcomp=0.60 / qpmin=0 / qpmax=69 / qpstep=4 / cplxblur=20.0 / qblur=0.5 / ip_ratio=1.40 / aq=1:1.00
Default : Нет
Forced : Нет
Коэффициенты матрицы : BT.601

Аудио #1
Идентификатор : 2
Формат : AC-3
Формат/Информация : Audio Coding 3
Расширение режима : CM (complete main)
Параметр Endianness формата : Big
Идентификатор кодека : A_AC3
Продолжительность : 1 ч. 36 м.
Вид битрейта : Постоянный
Битрейт : 448 Кбит/сек
Каналы : 6 каналов
Расположение каналов : Front: L C R, Side: L R, LFE
Частота : 48,0 КГц
Битовая глубина : 16 бит
Метод сжатия : С потерями
Размер потока : 308 Мбайт (14%)
Язык : Russian
Default : Да
Forced : Нет

Аудио #2
Идентификатор : 3
Формат : AC-3
Формат/Информация : Audio Coding 3
Расширение режима : CM (complete main)
Параметр Endianness формата : Big
Идентификатор кодека : A_AC3
Продолжительность : 1 ч. 36 м.
Вид битрейта : Постоянный
Битрейт : 192 Кбит/сек
Каналы : 2 канала
Расположение каналов : Front: L R
Частота : 48,0 КГц
Битовая глубина : 16 бит
Метод сжатия : С потерями
Размер потока : 132 Мбайт (6%)
Язык : Russian
Default : Нет
Forced : Нет

Меню
00:00:00.000 : en:Chapter 01
00:04:35.080 : en:Chapter 02
00:10:59.080 : en:Chapter 03
00:20:38.400 : en:Chapter 04
00:26:19.280 : en:Chapter 05
00:32:04.160 : en:Chapter 06
00:41:38.600 : en:Chapter 07
00:52:03.840 : en:Chapter 08
01:02:19.400 : en:Chapter 09
01:12:15.360 : en:Chapter 10
01:19:56.040 : en:Chapter 11
01:27:49.800 : en:Chapter 12
01:36:13.240 : en:Chapter 13



Релиз от: Temperest



   Похожие торренты   Торрент   Размер 
В этой теме нет новых непрочитанных сообщений. Путешествие с домашними животными (2007) DVDRip

24 | 42

1.37 ГБ

В этой теме нет новых непрочитанных сообщений. Мадагаскар. Путешествие с животными №1 (2011) PDF

0 | 2

13.94 МБ

В этой теме нет новых непрочитанных сообщений. Прощай, Бафана / Goodbye Bafana (2007) DVDRip-AVC от Temperest

9 | 4

2.84 ГБ

В этой теме нет новых непрочитанных сообщений. Тайны «Ночного дозора» / Nightwatching (2007) DVDRip от Temperest

0 | 2

3.27 ГБ

В этой теме нет новых непрочитанных сообщений. BBC: Беседы с животными / BBC: Talking with Animals [01-04 из 04] (2006) DVDRip от ExKinoRay

2 | 2

2.18 ГБ

В этой теме нет новых непрочитанных сообщений. Путешествие [01-08 из 8] (2007) DVDRip

6 | 6

4.1 ГБ

В этой теме нет новых непрочитанных сообщений. Путешествие во влюбленность (2007) DVDRip

7 | 3

744.03 МБ




Вы не можете начинать темы
Вы не можете отвечать на сообщения
Вы не можете редактировать свои сообщения
Вы не можете удалять свои сообщения
Вы не можете добавлять вложения

Перейти:  
Для Мосгорсуда, Роскомнадзора и рекламодателей: mosgorsud-torrent[собачка]yandex.ru
 Вход
ppkBB3cker v.2 © 2008-2014 @ PPK
[ Time : 0.611s | 14 Queries | GZIP : On ]

Торрент трекер RUTOR.IN, Не можете зайти на rutor.org? Какой новый адрес рутор? Какое зеркало рутор? Не работает rutor.org и зеркала? Тогда наш торрент специально для вас. Rutor.in неофициальное зеркало rutor. В случае если у Вас заблокирован rutor или вдруг Вы не можете на него зайти, то Вы без труда сможете скачать бесплатно и без рекламы последние новинки кино, игр, сериалов и прочего у нас, на Rutor.in. Не нужно использовать прокси, чтобы зайти на рутор, достаточно воспользоваться нашим ресурсом. Все новые фильмы, игры, сериалы, книги и музыка за 2013 и 2014 годы через торрент бесплатно. Скачивайте фильмы в хорошем качестве, игры для пк, xbox, playstation без регистрации. У нас вы найдете новые Зарубежные сериалы и Русские сериалы 2013, 2014, 2015 годов. Оставайтесь с нами, качайте любимые фильмы, игры, сериалы, книги и музыку.