img image001 image001 image001 image001 image001 image001 image001 image001 image001 image001 image001 image001 image001 image001 image001

Planets Sun Sun Sun
Статистика раздачи
Автор: Снежана | Размер: 1.46 ГБ | Добавлен: 24 июл 2013
Раздают: 1276    Качают: 26
Скачать торрент
Скачать торрент
Описание торрента

СообщениеДобавлено: 24 июл 2013 

С новым годом, мамы! / S Novym godom, mamy! (2012) BDRip
Релиз от HQ-ViDEO

«Праздничное кино»
Информация о фильме:
Оригинальное название: С новым годом, мамы!
Год выхода: 2012
Жанр: Комедия, Семейный
Режиссёр: Сарик Андреасян, Артем Аксененко, Дмитрий Грачев
В ролях: Максим Матвеев, Елизавета Боярская, Ален Делон /Alain Delon/, Ирина Розанова, Екатерина Вилкова, Максим Виторган, Павел Воля, Светлана Иванова, Константин Крюков, Гарик Харламов
Сюжет фильма:
В новой ленте зрители увидят новые истории и новые приключения новых героев, объединенных одним чувством — любовью к МАМЕ.
5 новелл. Смешные и трогательные, лиричные и комичные — каждая новелла расскажет историю мамы и ребенка, двух самых близких людей на свете. Ведь что бы ни происходило, мама всегда остается тем человеком, который будет любить всегда и несмотря ни на что…


Страна: Россия
Продолжительность: 01:24:20
Перевод: Не требуется
Субтитры: Отстутствуют
Информация о файле:
Качество: BDRip
Файл: AVI
Кодек: XviD, build 65 codec
Видео: 720 x 304, 2.37:1; 24.000 fps; ~ 2016 kbps; 0.384 bit/pixel
Аудио : 48 kHz, AC3 Dolby Digital, 3/2 (L,C,R,l,r) + LFE ch, ~448.00 kbps avg
Размер: 1492 Mb (1/3 )

General
Format : AVI
Format/Info : Audio Video Interleave
File size : 1.46 GiB
Duration : 1h 24mn
Overall bit rate : 2 474 Kbps
Movie name : S.Novym.Godom.Mamy.2012.RUS.BDRip.XviD.AC3.-HQ-ViDEO
Director : AngelOfTrue
Writing application : VirtualDubMod 1.5.10.3 | www.virtualdub-fr.org || (build 2550/release)
Original source form/Name : Movie
Copyright : HQ-ViDEO
Comment : 03.03.2013
Video
ID : 0
Format : MPEG-4 Visual
Format profile : Advanced Simple@L5
Format settings, BVOP : 1
Format settings, QPel : No
Format settings, GMC : No warppoints
Format settings, Matrix : Custom
Codec ID : XVID
Codec ID/Hint : XviD
Duration : 1h 24mn
Bit rate : 2 016 Kbps
Width : 720 pixels
Height : 304 pixels
Display aspect ratio : 2.35:1
Frame rate : 24.000 fps
Color space : YUV
Chroma subsampling : 4:2:0
Bit depth : 8 bits
Scan type : Progressive
Compression mode : Lossy
Bits/(Pixel*Frame) : 0.384
Stream size : 1.19 GiB (82%)
Writing library : XviD 65
Audio
ID : 1
Format : AC-3
Format/Info : Audio Coding 3
Mode extension : CM (complete main)
Codec ID : 2000
Duration : 1h 24mn
Bit rate mode : Constant
Bit rate : 448 Kbps
Channel(s) : 6 channels
Channel positions : Front: L C R, Side: L R, LFE
Sampling rate : 48.0 KHz
Bit depth : 16 bits
Compression mode : Lossy
Stream size : 270 MiB (18%)
Alignment : Split accross interleaves
Interleave, duration : 42 ms (1.00 video frame)
Interleave, preload duration : 500 ms

Релиз:
Автор рипа: AngelOfTrue
Источник:
ПРИЯТНОГО ПРОСМОТРА!



   Похожие торренты   Торрент   Размер 
В этой теме нет новых непрочитанных сообщений. С новым годом, мамы! (2012) BDRip-AVC

46 | 6

746.42 МБ

В этой теме нет новых непрочитанных сообщений. С новым годом, мамы! (2012) BDRip-AVC от ExKinoRay

475 | 32

1.46 ГБ

В этой теме нет новых непрочитанных сообщений. С новым годом, МАМЫ! (2012) BDRip-AVC | iPad

0 | 2

1.09 ГБ

В этой теме нет новых непрочитанных сообщений. С новым годом, мамы! (2012) BDRip от HELLYWOOD

19 | 4

1.45 ГБ

В этой теме нет новых непрочитанных сообщений. С новым годом, мамы! (2012) BDRip 1080p

95 | 12

4.37 ГБ

В этой теме нет новых непрочитанных сообщений. С новым годом, мамы! (2012) BDRip | Лицензия

28 | 7

1.37 ГБ

В этой теме нет новых непрочитанных сообщений. С новым годом, мамы! (2012) BDRip от Youtracker | Лицензия

11 | 2

744.92 МБ




Вы не можете начинать темы
Вы не можете отвечать на сообщения
Вы не можете редактировать свои сообщения
Вы не можете удалять свои сообщения
Вы не можете добавлять вложения

Перейти:  
Для Мосгорсуда, Роскомнадзора и рекламодателей: mosgorsud-torrent[собачка]yandex.ru
 Вход
ppkBB3cker v.2 © 2008-2014 @ PPK
[ Time : 53.078s | 13 Queries | GZIP : Off ]
CGP output time : 0.035s | 5 Queries | GZIP : Off

Торрент трекер RUTOR.IN, Не можете зайти на rutor.org? Какой новый адрес рутор? Какое зеркало рутор? Не работает rutor.org и зеркала? Тогда наш торрент специально для вас. Rutor.in неофициальное зеркало rutor. В случае если у Вас заблокирован rutor или вдруг Вы не можете на него зайти, то Вы без труда сможете скачать бесплатно и без рекламы последние новинки кино, игр, сериалов и прочего у нас, на Rutor.in. Не нужно использовать прокси, чтобы зайти на рутор, достаточно воспользоваться нашим ресурсом. Все новые фильмы, игры, сериалы, книги и музыка за 2013 и 2014 годы через торрент бесплатно. Скачивайте фильмы в хорошем качестве, игры для пк, xbox, playstation без регистрации. У нас вы найдете новые Зарубежные сериалы и Русские сериалы 2013, 2014, 2015 годов. Оставайтесь с нами, качайте любимые фильмы, игры, сериалы, книги и музыку.