img image001 image001 image001 image001 image001 image001 image001 image001 image001 image001 image001 image001 image001 image001 image001

Planets Sun Sun Sun
Статистика раздачи
Автор: Снежана | Размер: 1.46 ГБ | Добавлен: 24 июл 2013
Раздают: 6    Качают: 9
Скачать торрент
Скачать торрент
Описание торрента

СообщениеДобавлено: 24 июл 2013 

#77
Страна: СССР
Производство: Мосфильм
Жанр: комедия
Год выпуска: 1957
Продолжительность: 01:35:03

Перевод: не требуется
Оригинальная аудиодорожка: русский
Cубтитры: нет

Режиссер: Александр Столбов

В ролях: Василий Меркурьев, Ирина Скобцева, Георгий Куликов, Евгения Козырева, Серафима Бирман, Петр Константинов, Роза Макагонова, Александра Панова...

Описание:
В центре сюжета — амбициозные интриги: певец Ладыгин стесняется профессии своего внезапно приехавшего друга Свеколкина и представляет его членам своей семьи как крупного ученого; у Ладыгинского племянника Алексея есть невеста Кира, но её мать ссорит ее с женихом, чтобы сосватать за самого певца, разрушив его брак с Верой; Свеколкин убеждает свою дочь, тоже влюбленную в племянника, отступиться от него…






Тип релиза: SATRip
Контейнер: AVI

Видео: 688x528 (4:3), 25 fps, XviD ~ 1800 kbps avg, 0.198 bit/pixel
Аудио: 48 kHz, Dolby AC3 2.0, 384 kbps

Раздача от:
Общее
Полное имя : Obyknovennyj.chelovek.1957.DVDRip_[Youtracker]_by_AVP Studio.avi
Формат : AVI
Формат/Информация : Audio Video Interleave
Размер файла : 1,46 Гбайт
Продолжительность : 1 ч. 35 м.
Общий поток : 2193 Кбит/сек
Программа кодирования : VirtualDubMod 1.5.10.3 | www.virtualdub-fr.org || (build 2550/release)
Библиотека кодирования : VirtualDubMod build 2550/release

Видео
Идентификатор : 0
Формат : MPEG-4 Visual
Профиль формата : Advanced Simple@L5
Параметр BVOP формата : 1
Параметр QPel формата : Нет
Параметр GMC формата : Без точки перехода
Параметр матрицы формата : Выборочная
Идентификатор кодека : XVID
Идентификатор кодека/Подсказка : XviD
Продолжительность : 1 ч. 35 м.
Битрейт : 1800 Кбит/сек
Ширина : 688 пикселей
Высота : 528 пикселей
Соотношение сторон : 4:3
Частота кадров : 25,000 кадров/сек
Цветовое пространство : YUV
Субдискретизация насыщенности : 4:2:0
Битовая глубина : 8 бит
Тип развёртки : Прогрессивная
Метод сжатия : С потерями
Бит/(Пиксели*Кадры) : 0.198
Размер потока : 1,20 Гбайт (82%)
Библиотека кодирования : XviD 65

Аудио
Идентификатор : 1
Формат : AC-3
Формат/Информация : Audio Coding 3
Расширение режима : CM (complete main)
Идентификатор кодека : 2000
Продолжительность : 1 ч. 35 м.
Вид битрейта : Постоянный
Битрейт : 384 Кбит/сек
Каналы : 2 канала
Расположение каналов : Front: L R
Частота : 48,0 КГц
Битовая глубина : 16 бит
Метод сжатия : С потерями
Размер потока : 261 Мбайт (18%)
Выравнивание : Разделение по промежуткам
Продолжительность промежутка : 40 мс. (1,00 видеокадр)
Время предзагрузки промежутка : 500 мс





   Похожие торренты   Торрент   Размер 
В этой теме нет новых непрочитанных сообщений. Обыкновенный человек (1957) SATRip от Youtracker

1 | 4

746.24 МБ

В этой теме нет новых непрочитанных сообщений. Обыкновенный человек (1957) SATRip-AVC от Youtracker

4 | 8

1.46 ГБ

В этой теме нет новых непрочитанных сообщений. Обыкновенный человек (1957) SATRip-AVC от ExKinoRay

12 | 4

1.78 ГБ

В этой теме нет новых непрочитанных сообщений. Обыкновенный человек (1956) SATRip от New-Team

6 | 0

1.46 ГБ

В этой теме нет новых непрочитанных сообщений. Обыкновенный человек (1956) SATRip-AVC от New-Team

11 | 0

1.46 ГБ

В этой теме нет новых непрочитанных сообщений. Обыкновенный человек (1956) SATRip от New-Team

13 | 3

745.57 МБ

В этой теме нет новых непрочитанных сообщений. Снежный человек / The Abominable Snowman (1957) DVDRip от FilmRus | L1

0 | 280

1.37 ГБ




Вы не можете начинать темы
Вы не можете отвечать на сообщения
Вы не можете редактировать свои сообщения
Вы не можете удалять свои сообщения
Вы не можете добавлять вложения

Перейти:  
Для Мосгорсуда, Роскомнадзора и рекламодателей: mosgorsud-torrent[собачка]yandex.ru
 Вход
ppkBB3cker v.2 © 2008-2014 @ PPK
[ Time : 5.233s | 15 Queries | GZIP : Off ]

Торрент трекер RUTOR.IN, Не можете зайти на rutor.org? Какой новый адрес рутор? Какое зеркало рутор? Не работает rutor.org и зеркала? Тогда наш торрент специально для вас. Rutor.in неофициальное зеркало rutor. В случае если у Вас заблокирован rutor или вдруг Вы не можете на него зайти, то Вы без труда сможете скачать бесплатно и без рекламы последние новинки кино, игр, сериалов и прочего у нас, на Rutor.in. Не нужно использовать прокси, чтобы зайти на рутор, достаточно воспользоваться нашим ресурсом. Все новые фильмы, игры, сериалы, книги и музыка за 2013 и 2014 годы через торрент бесплатно. Скачивайте фильмы в хорошем качестве, игры для пк, xbox, playstation без регистрации. У нас вы найдете новые Зарубежные сериалы и Русские сериалы 2013, 2014, 2015 годов. Оставайтесь с нами, качайте любимые фильмы, игры, сериалы, книги и музыку.
cron