img image001 image001 image001 image001 image001 image001 image001 image001 image001 image001 image001 image001 image001 image001 image001

Planets Sun Sun Sun
Статистика раздачи
Автор: Снежана | Размер: 746.24 МБ | Добавлен: 24 июл 2013
Раздают: 1    Качают: 4
Скачать торрент
Скачать торрент
Описание торрента

СообщениеДобавлено: 24 июл 2013 

#77
Страна: СССР
Производство: Мосфильм
Жанр: комедия
Год выпуска: 1957
Продолжительность: 01:35:03

Перевод: не требуется
Оригинальная аудиодорожка: русский
Cубтитры: нет

Режиссер: Александр Столбов

В ролях: Василий Меркурьев, Ирина Скобцева, Георгий Куликов, Евгения Козырева, Серафима Бирман, Петр Константинов, Роза Макагонова, Александра Панова...

Описание:
В центре сюжета — амбициозные интриги: певец Ладыгин стесняется профессии своего внезапно приехавшего друга Свеколкина и представляет его членам своей семьи как крупного ученого; у Ладыгинского племянника Алексея есть невеста Кира, но её мать ссорит ее с женихом, чтобы сосватать за самого певца, разрушив его брак с Верой; Свеколкин убеждает свою дочь, тоже влюбленную в племянника, отступиться от него…






Тип релиза: SATRip
Контейнер: AVI

Видео: 576x448 (1,286:1), 25 fps, XviD ~ 960 kbps avg, 0.149 bit/pixel
Аудио: 48 kHz, MP3 2.0, 128 kbps

Раздача от:
Общее
Полное имя : Obyknovennyj.chelovek.1957.DVDRip-745_[Youtracker]_by_AVP Studio.avi
Формат : AVI
Формат/Информация : Audio Video Interleave
Размер файла : 746 Мбайт
Продолжительность : 1 ч. 35 м.
Общий поток : 1097 Кбит/сек
Программа кодирования : VirtualDubModRus 1.5.10.2 (build 2542/release)
Библиотека кодирования : VirtualDubMod build 2542/release

Видео
Идентификатор : 0
Формат : MPEG-4 Visual
Профиль формата : Advanced Simple@L5
Параметр BVOP формата : 1
Параметр QPel формата : Нет
Параметр GMC формата : Без точки перехода
Параметр матрицы формата : Выборочная
Идентификатор кодека : XVID
Идентификатор кодека/Подсказка : XviD
Продолжительность : 1 ч. 35 м.
Битрейт : 960 Кбит/сек
Ширина : 576 пикселей
Высота : 448 пикселей
Соотношение сторон : 1,286
Частота кадров : 25,000 кадров/сек
Цветовое пространство : YUV
Субдискретизация насыщенности : 4:2:0
Битовая глубина : 8 бит
Тип развёртки : Прогрессивная
Метод сжатия : С потерями
Бит/(Пиксели*Кадры) : 0.149
Размер потока : 653 Мбайт (87%)
Библиотека кодирования : XviD 65

Аудио
Идентификатор : 1
Формат : MPEG Audio
Версия формата : Version 1
Профиль формата : Layer 3
Идентификатор кодека : 55
Идентификатор кодека/Подсказка : MP3
Продолжительность : 1 ч. 35 м.
Вид битрейта : Постоянный
Битрейт : 128 Кбит/сек
Каналы : 2 канала
Частота : 48,0 КГц
Метод сжатия : С потерями
Размер потока : 87,0 Мбайт (12%)
Выравнивание : Соединение по промежуткам
Продолжительность промежутка : 40 мс. (1,00 видеокадр)
Время предзагрузки промежутка : 504 мс.
Библиотека кодирования : L3.99r
Настройки программы : -m s -V 4 -q 2 -lowpass 17 -b 128





   Похожие торренты   Торрент   Размер 
В этой теме нет новых непрочитанных сообщений. Обыкновенный человек (1957) SATRip-AVC от Youtracker

4 | 8

1.46 ГБ

В этой теме нет новых непрочитанных сообщений. Обыкновенный человек (1957) SATRip от Youtracker

6 | 9

1.46 ГБ

В этой теме нет новых непрочитанных сообщений. Обыкновенный человек (1957) SATRip-AVC от ExKinoRay

21 | 2

1.78 ГБ

В этой теме нет новых непрочитанных сообщений. Снежный человек / The Abominable Snowman (1957) DVDRip от FilmRus | L1

0 | 280

1.37 ГБ

В этой теме нет новых непрочитанных сообщений. Невероятно худеющий человек / The Incredible Shrinking Man (1957) HDTVRip-AVC | P

43 | 19

1.45 ГБ

В этой теме нет новых непрочитанных сообщений. Дом, в котором я живу (1957) DVDRip от Youtracker

17 | 5

746.18 МБ

В этой теме нет новых непрочитанных сообщений. Дом, в котором я живу (1957) DVDRip-AVC от Youtracker

98 | 5

1.46 ГБ




Вы не можете начинать темы
Вы не можете отвечать на сообщения
Вы не можете редактировать свои сообщения
Вы не можете удалять свои сообщения
Вы не можете добавлять вложения

Перейти:  
Для Мосгорсуда, Роскомнадзора и рекламодателей: mosgorsud-torrent[собачка]yandex.ru
 Вход
ppkBB3cker v.2 © 2008-2014 @ PPK
[ Time : 0.048s | 14 Queries | GZIP : Off ]

Торрент трекер RUTOR.IN, Не можете зайти на rutor.org? Какой новый адрес рутор? Какое зеркало рутор? Не работает rutor.org и зеркала? Тогда наш торрент специально для вас. Rutor.in неофициальное зеркало rutor. В случае если у Вас заблокирован rutor или вдруг Вы не можете на него зайти, то Вы без труда сможете скачать бесплатно и без рекламы последние новинки кино, игр, сериалов и прочего у нас, на Rutor.in. Не нужно использовать прокси, чтобы зайти на рутор, достаточно воспользоваться нашим ресурсом. Все новые фильмы, игры, сериалы, книги и музыка за 2013 и 2014 годы через торрент бесплатно. Скачивайте фильмы в хорошем качестве, игры для пк, xbox, playstation без регистрации. У нас вы найдете новые Зарубежные сериалы и Русские сериалы 2013, 2014, 2015 годов. Оставайтесь с нами, качайте любимые фильмы, игры, сериалы, книги и музыку.