img image001 image001 image001 image001 image001 image001 image001 image001 image001 image001 image001 image001 image001 image001 image001

Planets Sun Sun Sun
Статистика раздачи
Автор: Снежана | Размер: 1.46 ГБ | Добавлен: 24 июл 2013
Раздают: 15    Качают: 17
Скачать торрент
Скачать торрент
Описание торрента

СообщениеДобавлено: 24 июл 2013 

#77
Страна: СССР
Производство: Мосфильм
Жанр: приключения, военный
Год выпуска: 1958
Продолжительность: 01:37:22

Перевод: не требуется
Оригинальная аудиодорожка: русский
Cубтитры: нет

Режиссер: Николай Фигуровский

В ролях: Маргарита (Рита) Гладунко, Дмитрий Орлов (II), Евгения Козырева, Павел Пекур, Юрий Боголюбов, Евгений Карнаухов, Анатолий Адоскин, Здислав Стомма, Леонид Рахленко, Лидия Ржецкая, Николай Свободин, Зинаида Броварская, Владимир Кудревич, Тамара Трушина...

Описание:
В основе сюжета — подлинные события, происходившие в оккупированном Минске, когда советские партизаны под руководством учительницы Ганны Черной узнали планы немецкого командования.
Благодаря тонкой игре еще неопытной разведчицы Марины Казанич, партизаны взяли в плен и, выполняя волю народа, казнили наместника Гитлера, гаулейтера Вильгельма фон Кауница, снискавшего печальную известность своими злодеяниями…





Тип релиза: SATRip
Контейнер: AVI

Видео: 688x512 (4:3), 25 fps, XviD ~ 1941 kbps avg, 0.220 bit/pixel
Аудио: 48 kHz, Dolby AC3 2.0, 192 kbps

Раздача от:
Общее
Полное имя : Chasih.ostanovilisj.v.polnochj.1958.SATRip_[Youtracker]_by_AVP Studio.avi
Формат : AVI
Формат/Информация : Audio Video Interleave
Размер файла : 1,46 Гбайт
Продолжительность : 1 ч. 37 м.
Общий поток : 2143 Кбит/сек
Программа кодирования : VirtualDubModRus 1.5.10.2 (build 2542/release)
Библиотека кодирования : VirtualDubMod build 2542/release

Видео
Идентификатор : 0
Формат : MPEG-4 Visual
Профиль формата : Advanced Simple@L5
Параметр BVOP формата : 1
Параметр QPel формата : Нет
Параметр GMC формата : Без точки перехода
Параметр матрицы формата : Выборочная
Идентификатор кодека : XVID
Идентификатор кодека/Подсказка : XviD
Продолжительность : 1 ч. 37 м.
Битрейт : 1941 Кбит/сек
Ширина : 688 пикселей
Высота : 512 пикселей
Соотношение сторон : 4:3
Частота кадров : 25,000 кадров/сек
Цветовое пространство : YUV
Субдискретизация насыщенности : 4:2:0
Битовая глубина : 8 бит
Тип развёртки : Прогрессивная
Метод сжатия : С потерями
Бит/(Пиксели*Кадры) : 0.220
Размер потока : 1,32 Гбайт (91%)
Библиотека кодирования : XviD 65

Аудио
Идентификатор : 1
Формат : AC-3
Формат/Информация : Audio Coding 3
Расширение режима : CM (complete main)
Идентификатор кодека : 2000
Продолжительность : 1 ч. 37 м.
Вид битрейта : Постоянный
Битрейт : 192 Кбит/сек
Каналы : 2 канала
Расположение каналов : Front: L R
Частота : 48,0 КГц
Битовая глубина : 16 бит
Метод сжатия : С потерями
Размер потока : 134 Мбайт (9%)
Выравнивание : Разделение по промежуткам
Продолжительность промежутка : 40 мс. (1,00 видеокадр)
Время предзагрузки промежутка : 500 мс





   Похожие торренты   Торрент   Размер 
В этой теме нет новых непрочитанных сообщений. Часы остановились в полночь (1958) SATRip от Youtracker

3 | 6

744.94 МБ

В этой теме нет новых непрочитанных сообщений. Часы остановились в полночь (1958) IPTVRip

14 | 3

1.02 ГБ

В этой теме нет новых непрочитанных сообщений. Трое вышли из леса (1958) SATRip от Youtracker

4 | 3

1.46 ГБ

В этой теме нет новых непрочитанных сообщений. Трое вышли из леса (1958) SATRip от Youtracker

4 | 3

744.89 МБ

В этой теме нет новых непрочитанных сообщений. Два Фёдора (1958) DVDRip-AVC от Youtracker

23 | 8

1.46 ГБ

В этой теме нет новых непрочитанных сообщений. Добровольцы (1958) DVDRip от Youtracker

9 | 4

744.85 МБ

В этой теме нет новых непрочитанных сообщений. Добровольцы (1958) DVDRip от Youtracker

60 | 15

1.46 ГБ




Вы не можете начинать темы
Вы не можете отвечать на сообщения
Вы не можете редактировать свои сообщения
Вы не можете удалять свои сообщения
Вы не можете добавлять вложения

Перейти:  
Для Мосгорсуда, Роскомнадзора и рекламодателей: mosgorsud-torrent[собачка]yandex.ru
 Вход
ppkBB3cker v.2 © 2008-2014 @ PPK
[ Time : 0.019s | 14 Queries | GZIP : On ]

Торрент трекер RUTOR.IN, Не можете зайти на rutor.org? Какой новый адрес рутор? Какое зеркало рутор? Не работает rutor.org и зеркала? Тогда наш торрент специально для вас. Rutor.in неофициальное зеркало rutor. В случае если у Вас заблокирован rutor или вдруг Вы не можете на него зайти, то Вы без труда сможете скачать бесплатно и без рекламы последние новинки кино, игр, сериалов и прочего у нас, на Rutor.in. Не нужно использовать прокси, чтобы зайти на рутор, достаточно воспользоваться нашим ресурсом. Все новые фильмы, игры, сериалы, книги и музыка за 2013 и 2014 годы через торрент бесплатно. Скачивайте фильмы в хорошем качестве, игры для пк, xbox, playstation без регистрации. У нас вы найдете новые Зарубежные сериалы и Русские сериалы 2013, 2014, 2015 годов. Оставайтесь с нами, качайте любимые фильмы, игры, сериалы, книги и музыку.