img image001 image001 image001 image001 image001 image001 image001 image001 image001 image001 image001 image001 image001 image001 image001

Planets Sun Sun Sun
Статистика раздачи
Автор: Снежана | Размер: 744.89 МБ | Добавлен: 24 июл 2013
Раздают: 4    Качают: 3
Скачать торрент
Скачать торрент
Описание торрента

СообщениеДобавлено: 24 июл 2013 

#77
Страна: СССР
Производство: Мосфильм
Жанр: драма, военный
Год выпуска: 1958
Продолжительность: 01:29:12

Перевод: не требуется
Оригинальная аудиодорожка: русский
Cубтитры: нет

Режиссер: Константин Воинов

В ролях: Лидия Смирнова, Валентин Зубков, Михаил Погоржельский, Борис Смирнов, Евгений Буренков, Зоя Степанова, С. Морозов, Геннадий Горохов, Ольга Сумина...

Описание:
После того, как партизаны Юлия, Павел и Сергей ушли на боевое задание, отряд был окружен и уничтожен карателями. Спустя много лет, после окончания Второй мировой войны, следственные органы обнаружили документ, указывающий на то, что отряд был уничтожен по наводке одного из оставшихся в живых…





Тип релиза: SATRip
Контейнер: AVI

Видео: 592x464 (1,276:1), 25 fps, XviD ~ 1030 kbps avg, 0.150 bit/pixel
Аудио: 48 kHz, MP3 2.0, 128 kbps

Раздача от:
Общее
Полное имя : Troe.vyshli.iz.lesa.1958.SATRip-745_[Youtracker]_by_AVP Studio.avi
Формат : AVI
Формат/Информация : Audio Video Interleave
Размер файла : 745 Мбайт
Продолжительность : 1 ч. 29 м.
Общий поток : 1168 Кбит/сек
Программа кодирования : VirtualDubModRus 1.5.10.2 (build 2542/release)
Библиотека кодирования : VirtualDubMod build 2542/release

Видео
Идентификатор : 0
Формат : MPEG-4 Visual
Профиль формата : Advanced Simple@L5
Параметр BVOP формата : 1
Параметр QPel формата : Нет
Параметр GMC формата : Без точки перехода
Параметр матрицы формата : Выборочная
Идентификатор кодека : XVID
Идентификатор кодека/Подсказка : XviD
Продолжительность : 1 ч. 29 м.
Битрейт : 1030 Кбит/сек
Ширина : 592 пикселя
Высота : 464 пикселя
Соотношение сторон : 1,276
Частота кадров : 25,000 кадров/сек
Цветовое пространство : YUV
Субдискретизация насыщенности : 4:2:0
Битовая глубина : 8 бит
Тип развёртки : Прогрессивная
Метод сжатия : С потерями
Бит/(Пиксели*Кадры) : 0.150
Размер потока : 657 Мбайт (88%)
Библиотека кодирования : XviD 65

Аудио
Идентификатор : 1
Формат : MPEG Audio
Версия формата : Version 1
Профиль формата : Layer 3
Идентификатор кодека : 55
Идентификатор кодека/Подсказка : MP3
Продолжительность : 1 ч. 29 м.
Вид битрейта : Постоянный
Битрейт : 128 Кбит/сек
Каналы : 2 канала
Частота : 48,0 КГц
Метод сжатия : С потерями
Размер потока : 81,7 Мбайт (11%)
Выравнивание : Соединение по промежуткам
Продолжительность промежутка : 40 мс. (1,00 видеокадр)
Время предзагрузки промежутка : 504 мс.
Библиотека кодирования : L3.99r
Настройки программы : -m s -V 4 -q 2 -lowpass 17 -b 128





   Похожие торренты   Торрент   Размер 
В этой теме нет новых непрочитанных сообщений. Трое вышли из леса (1958) SATRip от Youtracker

4 | 3

1.46 ГБ

В этой теме нет новых непрочитанных сообщений. Трое вышли из леса (1958) TVRip

6 | 3

1.37 ГБ

В этой теме нет новых непрочитанных сообщений. Трое негодяев в скрытой крепости / Kakushi-toride no san-akunin (1958) DVDRip-AVC

0 | 2

2.13 ГБ

В этой теме нет новых непрочитанных сообщений. Трое негодяев в скрытой крепости / Kakushi-toride no san-akunin (1958) HDRip от NovaLan

31 | 4

2.18 ГБ

В этой теме нет новых непрочитанных сообщений. Часы остановились в полночь (1958) SATRip от Youtracker

3 | 6

744.94 МБ

В этой теме нет новых непрочитанных сообщений. Часы остановились в полночь (1958) SATRip от Youtracker

15 | 17

1.46 ГБ

В этой теме нет новых непрочитанных сообщений. Трое негодяев в скрытой крепости / Kakushi-toride no san-akunin (1958) BD-Remux 1080p от HDClub

14 | 2

40.76 ГБ




Вы не можете начинать темы
Вы не можете отвечать на сообщения
Вы не можете редактировать свои сообщения
Вы не можете удалять свои сообщения
Вы не можете добавлять вложения

Перейти:  
Для Мосгорсуда, Роскомнадзора и рекламодателей: mosgorsud-torrent[собачка]yandex.ru
 Вход
ppkBB3cker v.2 © 2008-2014 @ PPK
[ Time : 0.033s | 14 Queries | GZIP : Off ]

Торрент трекер RUTOR.IN, Не можете зайти на rutor.org? Какой новый адрес рутор? Какое зеркало рутор? Не работает rutor.org и зеркала? Тогда наш торрент специально для вас. Rutor.in неофициальное зеркало rutor. В случае если у Вас заблокирован rutor или вдруг Вы не можете на него зайти, то Вы без труда сможете скачать бесплатно и без рекламы последние новинки кино, игр, сериалов и прочего у нас, на Rutor.in. Не нужно использовать прокси, чтобы зайти на рутор, достаточно воспользоваться нашим ресурсом. Все новые фильмы, игры, сериалы, книги и музыка за 2013 и 2014 годы через торрент бесплатно. Скачивайте фильмы в хорошем качестве, игры для пк, xbox, playstation без регистрации. У нас вы найдете новые Зарубежные сериалы и Русские сериалы 2013, 2014, 2015 годов. Оставайтесь с нами, качайте любимые фильмы, игры, сериалы, книги и музыку.