img image001 image001 image001 image001 image001 image001 image001 image001 image001 image001 image001 image001 image001 image001 image001

Planets Sun Sun Sun
Статистика раздачи
Автор: Снежана | Размер: 744.56 МБ | Добавлен: 24 июл 2013
Раздают: 27    Качают: 7
Скачать торрент
Скачать торрент
Описание торрента

СообщениеДобавлено: 24 июл 2013 

Этот выдающийся фильм вошел в золотой фонд кинематографа, с триумфом обойдя экраны планеты...



#77
Страна: СССР
Производство: Министерство Кинематографии, Мосфильм
Жанр: драма, военный
Год выпуска: 1959
Продолжительность: 01:24:21

Перевод: не требуется
Оригинальная аудиодорожка: русский
Cубтитры: нет

Режиссер: Григорий Чухрай

В ролях: Владимир Ивашов, Жанна Прохоренко, Антонина Максимова, Николай Крючков, Евгений Урбанский, Мария Кремнева, Эльза Леждей, Валентина Телегина, Валентина Маркова, Евгений Тетерин, Владимир Покровский, Георгий Юматов, Геннадий Юхтин, Александр Кузнецов, Валентин Брылеев, Лев Борисов, Леонид Чубаров, Владимир Кашпур, Валентин Абрамов, Михаил Дадыко, Семен Свашенко, Нина Меньшикова, Любовь Соколова, Петр Кирюткин, Раднэр Муратов, Евгений Евстигнеев, Александра Данилова, Валентина Ананьина, Зоя Исаева, Марина (Мария) Гаврилко, Екатерина Савинова, Алексей Бахарь, Алевтина Румянцева, Вера Бурлакова, Елена Вольская, Николай Сморчков, Всеволод Санаев, Юрий Дубровин, Валентина Березуцкая, Виктор Маркин, Артур Нищёнкин, Юрий Яковлев (текст от автора)...

Описание:
Великая Отечественная война. Молодой солдат Алёша Скворцов совершает подвиг — подбивает два немецких танка. Командование собирается представить его к ордену, но Алёша просит дать ему отпуск, чтобы повидаться с мамой. Путь домой долог и непрост.
Алеша помогает безногому инвалиду встретиться с женой, девушке Шуре — добраться до тетки. Даже последнюю ночь отпуска он проводит не под родной крышей, а спасая детей от бомбежки. Несколько дней без войны. Несколько дней на пути к дому. Он так и останется навеки девятнадцатилетним. Сыном, отказавшимся от ордена ради того, чтобы в последний раз обнять маму. У солдата Скворцова остаётся всего несколько минут, чтобы обнять мать и сказать: «Я вернусь!»…

Награды:
Премия кинокритики, первая премия за режиссуру на ВКФ в Минске (1960); приз "Варшавская сирена", приз "Злата качка" ("Золотая чайка") на МКФ в Варшаве (1960); приз за лучший фильм для молодежи на МКФ в Канне (1960); гран-при за режиссуру на МКФ в Лондоне (1960); приз "Серебряная лента" и почетный диплом Григорию Чухраю на МКФ в Милане (1960); гран-при "Золотые ворота" и приз лучшему режиссеру на МКФ в Сан-Франциско (1960); серебряная медаль за режиссуру на МКФ в Тегеране (1960); гран-при за режиссуру на МКФ трудящихся в ЧССР (1960); премия "Давид ди Донателло" Григорию Чухраю, премия "Сан Винсент" Владимиру Ивашову; Ленинская премия за 1961 год (Григорий Чухрай, Валентин Ежов); приз "Халиско" и приз "Серебряное сомбреро" за режиссуру на МКФ в Мехико (1961); почетный диплом лучшему зарубежному актеру (Владимир Ивашов) в фильмах года в Афинах (1961); "Золотой лавровый венок" (Григорий Чухрай) Фонда Дэвида Оливера Селзника "За высокое гуманистическое содержание" (1962); приз Ассоциации продюсеров США "Золотой лавр"; "Лучший фильм года" (1960-1961) в Америке, Японии, Греции; премия BAFTA за лучший фильм (1961); премия «Бодил» за лучший европейский фильм (1961)





Исходник: DVD9 R5
Тип релиза: DVDRip
Контейнер: AVI

Видео: 624x480 (1,300:1), 25 fps, XviD ~ 1096 kbps avg, 0.146 bit/pixel
Аудио: 48 kHz, MP3 2.0, 128 kbps

Раздача от:
Общее
Полное имя : Ballada.o.soldate.1959.DVDRip-745_[Youtracker]_by_AVP Studio.avi
Формат : AVI
Формат/Информация : Audio Video Interleave
Размер файла : 745 Мбайт
Продолжительность : 1 ч. 24 м.
Общий поток : 1234 Кбит/сек
Программа кодирования : VirtualDubMod 1.5.10.3 | www.virtualdub-fr.org || (build 2550/release)
Библиотека кодирования : VirtualDubMod build 2550/release

Видео
Идентификатор : 0
Формат : MPEG-4 Visual
Профиль формата : Advanced Simple@L5
Параметр BVOP формата : 1
Параметр QPel формата : Нет
Параметр GMC формата : Без точки перехода
Параметр матрицы формата : Выборочная
Идентификатор кодека : XVID
Идентификатор кодека/Подсказка : XviD
Продолжительность : 1 ч. 24 м.
Битрейт : 1096 Кбит/сек
Ширина : 624 пикселя
Высота : 480 пикселей
Соотношение сторон : 1,300
Частота кадров : 25,000 кадров/сек
Цветовое пространство : YUV
Субдискретизация насыщенности : 4:2:0
Битовая глубина : 8 бит
Тип развёртки : Прогрессивная
Метод сжатия : С потерями
Бит/(Пиксели*Кадры) : 0.146
Размер потока : 661 Мбайт (89%)
Библиотека кодирования : XviD 65

Аудио
Идентификатор : 1
Формат : MPEG Audio
Версия формата : Version 1
Профиль формата : Layer 3
Идентификатор кодека : 55
Идентификатор кодека/Подсказка : MP3
Продолжительность : 1 ч. 24 м.
Вид битрейта : Постоянный
Битрейт : 128 Кбит/сек
Каналы : 2 канала
Частота : 48,0 КГц
Метод сжатия : С потерями
Размер потока : 77,2 Мбайт (10%)
Выравнивание : Соединение по промежуткам
Продолжительность промежутка : 40 мс. (1,00 видеокадр)
Время предзагрузки промежутка : 504 мс.
Библиотека кодирования : L3.99r
Настройки программы : -m s -V 4 -q 2 -lowpass 17 -b 128





   Похожие торренты   Торрент   Размер 
В этой теме нет новых непрочитанных сообщений. Баллада о солдате (1959) DVDRip-AVC от Youtracker

12 | 3

1.46 ГБ

В этой теме нет новых непрочитанных сообщений. Баллада о солдате (1959) DVDRip

29 | 2

1.46 ГБ

В этой теме нет новых непрочитанных сообщений. Баллада о солдате (1959) BDRip-AVC от MediaClub

19 | 8

1.75 ГБ

В этой теме нет новых непрочитанных сообщений. Баллада о солдате (1959) HDRip от Scarabey

239 | 22

1.45 ГБ

В этой теме нет новых непрочитанных сообщений. Баллада о солдате (1959) BDRip от HQCLUB

108 | 21

1.45 ГБ

В этой теме нет новых непрочитанных сообщений. Баллада о солдате (1959) BDRip от MediaClub | КПК

7 | 0

394.94 МБ

В этой теме нет новых непрочитанных сообщений. Баллада о солдате (1959) BDRip 720p от MediaClub

84 | 25

3.35 ГБ




Вы не можете начинать темы
Вы не можете отвечать на сообщения
Вы не можете редактировать свои сообщения
Вы не можете удалять свои сообщения
Вы не можете добавлять вложения

Перейти:  
Для Мосгорсуда, Роскомнадзора и рекламодателей: mosgorsud-torrent[собачка]yandex.ru
 Вход
ppkBB3cker v.2 © 2008-2014 @ PPK
[ Time : 0.068s | 14 Queries | GZIP : Off ]

Торрент трекер RUTOR.IN, Не можете зайти на rutor.org? Какой новый адрес рутор? Какое зеркало рутор? Не работает rutor.org и зеркала? Тогда наш торрент специально для вас. Rutor.in неофициальное зеркало rutor. В случае если у Вас заблокирован rutor или вдруг Вы не можете на него зайти, то Вы без труда сможете скачать бесплатно и без рекламы последние новинки кино, игр, сериалов и прочего у нас, на Rutor.in. Не нужно использовать прокси, чтобы зайти на рутор, достаточно воспользоваться нашим ресурсом. Все новые фильмы, игры, сериалы, книги и музыка за 2013 и 2014 годы через торрент бесплатно. Скачивайте фильмы в хорошем качестве, игры для пк, xbox, playstation без регистрации. У нас вы найдете новые Зарубежные сериалы и Русские сериалы 2013, 2014, 2015 годов. Оставайтесь с нами, качайте любимые фильмы, игры, сериалы, книги и музыку.