img image001 image001 image001 image001 image001 image001 image001 image001 image001 image001 image001 image001 image001 image001 image001

Planets Sun Sun Sun
Статистика раздачи
Автор: Снежана | Размер: 1.46 ГБ | Добавлен: 24 июл 2013
Раздают: 60    Качают: 15
Скачать торрент
Скачать торрент
Описание торрента

СообщениеДобавлено: 24 июл 2013 

#77
Страна: СССР
Производство: Студия Горького
Жанр: драма, военный
Год выпуска: 1958
Продолжительность: 01:31:05

Перевод: не требуется
Оригинальная аудиодорожка: русский
Cубтитры: нет

Режиссер: Юрий Егоров

В ролях: Михаил Ульянов, Петр Щербаков, Леонид Быков, Элина Быстрицкая, Людмила Крылова, Микаэла Дроздовская, Сергей Плотников, Виктор Чекмарев, Никифор Колофидин, Александр Сашин-Никольский, Нонна Мордюкова, Мария Виноградова, Павел Винник, Юрий Киреев, Юрий Горбунов, Иван Косых, Леонид Пирогов, Людмила Марченко, Иван Мочалов, Людмила Иванова, Валентин Брылеев, Светлана Харитонова, Елена Максимова, Николай Погодин, Алевтина Румянцева...

Описание:
Действие происходит в 30 — 50 годы. Неразлучные друзья Кайтанов, Уфимцев и Акишин добровольно стали первыми метростроевцами. О них и их подругах Леле, Маше и Тане и других друзьях и товарищах рассказывает этот фильм. Свою дружбу и единство они пронесли через всю жизнь. Трудовой фронт, испанские добровольные бригады, Вторая мировая война и снова послевоенный труд уже в мирное время, радости и печали, победы и утраты, любовь и счастье…





Исходник: DVD5 R5
Тип релиза: DVDRip
Контейнер: AVI

Видео: 688x528 (4:3), 25 fps, XviD ~ 1895 kbps avg, 0.209 bit/pixel
Аудио: 48 kHz, Dolby AC3 5.1, 384 kbps

Раздача от:
Общее
Полное имя : Dobrovol'cy.1958.DVDRip_[Youtracker]_by_AVP Studio.avi
Формат : AVI
Формат/Информация : Audio Video Interleave
Размер файла : 1,46 Гбайт
Продолжительность : 1 ч. 31 м.
Общий поток : 2289 Кбит/сек
Программа кодирования : VirtualDubMod 1.5.10.3 | www.virtualdub-fr.org || (build 2550/release)
Библиотека кодирования : VirtualDubMod build 2550/release

Видео
Идентификатор : 0
Формат : MPEG-4 Visual
Профиль формата : Advanced Simple@L5
Параметр BVOP формата : 1
Параметр QPel формата : Нет
Параметр GMC формата : Без точки перехода
Параметр матрицы формата : Выборочная
Идентификатор кодека : XVID
Идентификатор кодека/Подсказка : XviD
Продолжительность : 1 ч. 31 м.
Битрейт : 1895 Кбит/сек
Ширина : 688 пикселей
Высота : 528 пикселей
Соотношение сторон : 4:3
Частота кадров : 25,000 кадров/сек
Цветовое пространство : YUV
Субдискретизация насыщенности : 4:2:0
Битовая глубина : 8 бит
Тип развёртки : Прогрессивная
Метод сжатия : С потерями
Бит/(Пиксели*Кадры) : 0.209
Размер потока : 1,21 Гбайт (83%)
Библиотека кодирования : XviD 65

Аудио
Идентификатор : 1
Формат : AC-3
Формат/Информация : Audio Coding 3
Расширение режима : CM (complete main)
Идентификатор кодека : 2000
Продолжительность : 1 ч. 31 м.
Вид битрейта : Постоянный
Битрейт : 384 Кбит/сек
Каналы : 6 каналов
Расположение каналов : Front: L C R, Side: L R, LFE
Частота : 48,0 КГц
Битовая глубина : 16 бит
Метод сжатия : С потерями
Размер потока : 250 Мбайт (17%)
Выравнивание : Разделение по промежуткам
Продолжительность промежутка : 40 мс. (1,00 видеокадр)
Время предзагрузки промежутка : 500 мс





   Похожие торренты   Торрент   Размер 
В этой теме нет новых непрочитанных сообщений. Добровольцы (1958) DVDRip-AVC от Youtracker

16 | 9

1.46 ГБ

В этой теме нет новых непрочитанных сообщений. Добровольцы (1958) DVDRip от Youtracker

9 | 4

744.85 МБ

В этой теме нет новых непрочитанных сообщений. Два Фёдора (1958) DVDRip от Youtracker

3 | 2

744.94 МБ

В этой теме нет новых непрочитанных сообщений. Два Фёдора (1958) DVDRip от Youtracker

18 | 7

1.46 ГБ

В этой теме нет новых непрочитанных сообщений. Жажда (1958) DVDRip от Youtracker

20 | 5

744.32 МБ

В этой теме нет новых непрочитанных сообщений. Два Фёдора (1958) DVDRip-AVC от Youtracker

23 | 8

1.46 ГБ

В этой теме нет новых непрочитанных сообщений. Последний дюйм (1958) DVDRip-AVC от Youtracker

123 | 7

1.46 ГБ




Вы не можете начинать темы
Вы не можете отвечать на сообщения
Вы не можете редактировать свои сообщения
Вы не можете удалять свои сообщения
Вы не можете добавлять вложения

Перейти:  
Для Мосгорсуда, Роскомнадзора и рекламодателей: mosgorsud-torrent[собачка]yandex.ru
 Вход
ppkBB3cker v.2 © 2008-2014 @ PPK
[ Time : 0.039s | 15 Queries | GZIP : Off ]

Торрент трекер RUTOR.IN, Не можете зайти на rutor.org? Какой новый адрес рутор? Какое зеркало рутор? Не работает rutor.org и зеркала? Тогда наш торрент специально для вас. Rutor.in неофициальное зеркало rutor. В случае если у Вас заблокирован rutor или вдруг Вы не можете на него зайти, то Вы без труда сможете скачать бесплатно и без рекламы последние новинки кино, игр, сериалов и прочего у нас, на Rutor.in. Не нужно использовать прокси, чтобы зайти на рутор, достаточно воспользоваться нашим ресурсом. Все новые фильмы, игры, сериалы, книги и музыка за 2013 и 2014 годы через торрент бесплатно. Скачивайте фильмы в хорошем качестве, игры для пк, xbox, playstation без регистрации. У нас вы найдете новые Зарубежные сериалы и Русские сериалы 2013, 2014, 2015 годов. Оставайтесь с нами, качайте любимые фильмы, игры, сериалы, книги и музыку.
cron