img image001 image001 image001 image001 image001 image001 image001 image001 image001 image001 image001 image001 image001 image001 image001

Planets Sun Sun Sun
Статистика раздачи
Автор: Снежана | Размер: 1.46 ГБ | Добавлен: 24 июл 2013
Раздают: 8    Качают: 4
Скачать торрент
Скачать торрент
Описание торрента

СообщениеДобавлено: 24 июл 2013 

#77

Информация о фильме
Название: Мечтать не вредно
Год выхода: 2005
Жанр: Комедия
Режиссер: Евгений Лаврентьев
В ролях: Артем Ткаченко, Дмитрий Дюжев, Ирина Леонова, Александр Семчев, Владимир Симонов, Анастасия Цветаева, Анна Чурина, Вадим Колганов

О фильме:
Героя фильма зовут Шнэк, он не совсем обычный парень и от его компании, ведущей тусовочный образ жизни — модные клубы, девочки и сплошные вечеринки, его отличает одно: Шнэк — мечтатель. Он постоянно удивляется и завидует красивым девчонкам: «Как же им легко живется и все удается благодаря обворожительной улыбке и длинным ногам. Вот бы…».

Но так ли просто прикрывать красивые ножки мини-юбкой и не оказаться в постели закадычных друзей. И вообще, безопасно ли мечтать, когда рядом волшебник ищет очередную жертву, чтобы исполнить ее заветное желание…



Страна: Россия
Продолжительность: 01:20:22
Язык: Русский

Файл
Кодек: h.264
Качество: DVDRip-AVC
Видео: 720x408, 2216 Kbps, 25.000 fps, 0.302 Bits/(Pixel*Frame)
Звук: AC3, 384 Kbps, 6 channels

Format : Matroska
Format version : Version 2
File size : 1.46 GiB
Duration : 1h 20mn
Overall bit rate : 2 601 Kbps
Encoded date : UTC 2013-02-22 05:54:49
Writing application : mkvmerge v5.6.0 ('Kenya Kane') built on May 27 2012 16:44:04
Writing library : libebml v1.2.3 + libmatroska v1.3.0

Video
ID : 1
Format : AVC
Format/Info : Advanced Video Codec
Format profile : High@L4.1
Format settings, CABAC : Yes
Format settings, ReFrames : 16 frames
Codec ID : V_MPEG4/ISO/AVC
Duration : 1h 20mn
Bit rate : 2 216 Kbps
Width : 720 pixels
Height : 408 pixels
Display aspect ratio : 16:9
Frame rate : 25.000 fps
Color space : YUV
Chroma subsampling : 4:2:0
Bit depth : 8 bits
Scan type : Progressive
Bits/(Pixel*Frame) : 0.302
Stream size : 1.22 GiB (83%)
Writing library : x264 core 129 r2230 1cffe9f
Encoding settings : cabac=1 / ref=16 / deblock=1:0:0 / analyse=0x3:0x133 / me=umh / subme=11 / psy=1 / psy_rd=1.00:0.00 / mixed_ref=1 / me_range=32 / chroma_me=1 / trellis=2 / 8x8dct=1 / cqm=0 / deadzone=21,11 / fast_pskip=0 / chroma_qp_offset=-2 / threads=9 / lookahead_threads=1 / sliced_threads=0 / nr=0 / decimate=1 / interlaced=0 / bluray_compat=0 / constrained_intra=0 / bframes=8 / b_pyramid=2 / b_adapt=2 / b_bias=0 / direct=3 / weightb=1 / open_gop=0 / weightp=2 / keyint=250 / keyint_min=25 / scenecut=40 / intra_refresh=0 / rc_lookahead=60 / rc=2pass / mbtree=1 / bitrate=2216 / ratetol=1.0 / qcomp=0.60 / qpmin=0 / qpmax=69 / qpstep=4 / cplxblur=20.0 / qblur=0.5 / ip_ratio=1.40 / aq=1:1.00
Default : Yes
Forced : No

Audio
ID : 2
Format : AC-3
Format/Info : Audio Coding 3
Mode extension : CM (complete main)
Format settings, Endianness : Big
Codec ID : A_AC3
Duration : 1h 20mn
Bit rate mode : Constant
Bit rate : 384 Kbps
Channel(s) : 6 channels
Channel positions : Front: L C R, Side: L R, LFE
Sampling rate : 48.0 KHz
Bit depth : 16 bits
Compression mode : Lossy
Stream size : 221 MiB (15%)
Default : Yes
Forced : No


x264 [info]: frame I:970 Avg QP:14.13 size: 57289
x264 [info]: frame P:27936 Avg QP:16.94 size: 23850
x264 [info]: frame B:91644 Avg QP:20.14 size: 6696





   Похожие торренты   Торрент   Размер 
В этой теме нет новых непрочитанных сообщений. Мечтать не вредно (2005) DVDRip от SergV

12 | 4

1.37 ГБ

В этой теме нет новых непрочитанных сообщений. Мечтать не вредно (2005) DVDRip от brazolargo

115 | 8

697.76 МБ

В этой теме нет новых непрочитанных сообщений. Витание в облаках / Мечтать не вредно / On peut toujours rêver (1991) DVDRip-AVC от Marvel

14 | 2

2.18 ГБ

В этой теме нет новых непрочитанных сообщений. Мечтать не вредно (2012) SATRip

58 | 5

1.38 ГБ

В этой теме нет новых непрочитанных сообщений. Мечтать не вредно (2012) HDTVRip от Files-x

86 | 8

1.37 ГБ

В этой теме нет новых непрочитанных сообщений. Мне нужно выше - Мечтать вредно (2015) MP3

90 | 9

126.85 МБ

В этой теме нет новых непрочитанных сообщений. Мечтать не вредно (2012) HDTV 1080i

6 | 2

5.32 ГБ




Вы не можете начинать темы
Вы не можете отвечать на сообщения
Вы не можете редактировать свои сообщения
Вы не можете удалять свои сообщения
Вы не можете добавлять вложения

Перейти:  
Для Мосгорсуда, Роскомнадзора и рекламодателей: mosgorsud-torrent[собачка]yandex.ru
 Вход
ppkBB3cker v.2 © 2008-2014 @ PPK
[ Time : 0.041s | 14 Queries | GZIP : Off ]

Торрент трекер RUTOR.IN, Не можете зайти на rutor.org? Какой новый адрес рутор? Какое зеркало рутор? Не работает rutor.org и зеркала? Тогда наш торрент специально для вас. Rutor.in неофициальное зеркало rutor. В случае если у Вас заблокирован rutor или вдруг Вы не можете на него зайти, то Вы без труда сможете скачать бесплатно и без рекламы последние новинки кино, игр, сериалов и прочего у нас, на Rutor.in. Не нужно использовать прокси, чтобы зайти на рутор, достаточно воспользоваться нашим ресурсом. Все новые фильмы, игры, сериалы, книги и музыка за 2013 и 2014 годы через торрент бесплатно. Скачивайте фильмы в хорошем качестве, игры для пк, xbox, playstation без регистрации. У нас вы найдете новые Зарубежные сериалы и Русские сериалы 2013, 2014, 2015 годов. Оставайтесь с нами, качайте любимые фильмы, игры, сериалы, книги и музыку.