img image001 image001 image001 image001 image001 image001 image001 image001 image001 image001 image001 image001 image001 image001 image001

Planets Sun Sun Sun
Статистика раздачи
Автор: Снежана | Размер: 11.5 ГБ | Добавлен: 24 июл 2013
Раздают: 11    Качают: 3
Скачать торрент
Скачать торрент
Описание торрента

СообщениеДобавлено: 24 июл 2013 

#77

Информация о фильме
Оригинальное название: Метро
Год выпуска: 2012
Жанр: Триллер, драма
Выпущено: Россия, Профит
Режиссер: Антон Мегердичев
В ролях: Сергей Пускепалис, Анатолий Белый, Анфиса Вистингаузен, Алексей Бардуков, Катерина Шпица, Елена Панова, Станислав Дужников, Светлана Ходченкова, Сергей Сосновский, Ярослав Жалнин, Александр Яковлев, Владимир Стержаков, Александр Фисенко, Иван Макаревич, Максим Линников, Иван Лапин, Олег Заболотный, Кирилл Плетнев, Дмитрий Орлов, Анатолий Котенев, Дмитрий Высоцкий, Александр Журман, Екатерина Директоренко, Александр Армер, Александр Вдовин, Денис Парамонов, Елена Гольянова, Николай Рябков, Михаил Фатеев, Елена Катышева, Ксения Березина, Сергей Коваленко, Вячеслав Иванов, Алексей Овсянников, Александр Тараньжин, Лилия Кондрова, Владимир Юматов, Иван Лешук, Алексей Фатеев, Алексей Нестеров, Константин Овсянников

О фильме: Широко развернувшееся в центре Москвы строительство новых зданий приводит к тому, что в одном из тоннелей метро между двумя станциями возникает трещина. Никто себе и представить не мог, что в результате нарушения герметичности перекрытия в тоннель хлынет вода из Москва-реки, и сотни пассажиров поезда окажутся во власти надвигающегося потопа. Бешеный поток воды грозит не только обрушением тоннелей метро, но и разрушением всего города. Среди попавших в беду людей — врач городской больницы Андрей Гарин и его дочь Ксюша. Гарин сражается с катастрофой, пытаясь спасти оставшихся в живых пассажиров, в том числе и …любовника своей жены. Гарину придется побороть обиду, гнев и страх. Он должен выжить, чтобы вернуть свою любовь, семью… свою прежнюю счастливую жизнь.



Файл
Качество: BDRip (1080p)
Видео: MPEG-4 AVC, 10.7 Мбит/с, 1920x816
Аудио: DTS, 6 ch, 1510 Кбит/с
Размер: 11.5 ГБ
Продолжительность: 02:11:44
Язык: Русский

Семпл
General
Unique ID : 232346540252353452112375447469512286472 (0xAECC50E118566E0C89867734AB596108)
Complete name : Metro.2013.O.BDRip.1080p.IRONCLUB.mkv
Format : Matroska
Format version : Version 2
File size : 11.5 GiB
Duration : 2h 11mn
Overall bit rate : 12.5 Mbps
Encoded date : UTC 2013-03-08 07:14:39
Writing application : mkvmerge v5.2.0 ('I can't explain') built on Dec 18 2011 18:12:03
Writing library : libebml v1.2.3 + libmatroska v1.3.0

Video
ID : 1
Format : AVC
Format/Info : Advanced Video Codec
Format profile : High@L4.1
Format settings, CABAC : Yes
Format settings, ReFrames : 5 frames
Codec ID : V_MPEG4/ISO/AVC
Duration : 2h 11mn
Bit rate : 10.7 Mbps
Width : 1 920 pixels
Height : 816 pixels
Display aspect ratio : 2.35:1
Frame rate : 23.976 fps
Color space : YUV
Chroma subsampling : 4:2:0
Bit depth : 8 bits
Scan type : Progressive
Bits/(Pixel*Frame) : 0.286
Stream size : 9.88 GiB (86%)
Title : Metro 2013 1080p BluRay DTS x264-IRONCLUB
Writing library : x264 core 129 r2245 bc13772
Encoding settings : cabac=1 / ref=5 / deblock=1:-3:-3 / analyse=0x3:0x113 / me=umh / subme=10 / psy=1 / psy_rd=1.20:0.00 / mixed_ref=1 / me_range=48 / chroma_me=1 / trellis=2 / 8x8dct=1 / cqm=0 / deadzone=21,11 / fast_pskip=0 / chroma_qp_offset=-2 / threads=12 / lookahead_threads=2 / sliced_threads=0 / nr=0 / decimate=1 / interlaced=0 / bluray_compat=0 / constrained_intra=0 / bframes=7 / b_pyramid=2 / b_adapt=2 / b_bias=0 / direct=3 / weightb=1 / open_gop=0 / weightp=2 / keyint=250 / keyint_min=23 / scenecut=40 / intra_refresh=0 / rc_lookahead=40 / rc=crf / mbtree=0 / crf=18.0 / qcomp=0.70 / qpmin=0 / qpmax=69 / qpstep=4 / vbv_maxrate=50000 / vbv_bufsize=62500 / crf_max=0.0 / nal_hrd=none / ip_ratio=1.30 / pb_ratio=1.20 / aq=1:0.80
Language : English
Default : Yes
Forced : No

Audio
ID : 2
Format : DTS
Format/Info : Digital Theater Systems
Codec ID : A_DTS
Duration : 2h 11mn
Bit rate mode : Constant
Bit rate : 1 510 Kbps
Channel(s) : 6 channels
Channel positions : Front: L C R, Side: L R, LFE
Sampling rate : 48.0 KHz
Bit depth : 24 bits
Compression mode : Lossy
Stream size : 1.39 GiB (12%)
Title : DTS 5.1 @ 1536 kbps
Language : Russian
Default : Yes
Forced : Yes

Menu
00:00:00.000 : ru:00:00:00.000
00:06:11.120 : ru:00:06:11.120
00:13:05.284 : ru:00:13:05.284
00:19:35.757 : ru:00:19:35.757
00:26:29.129 : ru:00:26:29.129
00:33:53.406 : ru:00:33:53.406
00:41:08.883 : ru:00:41:08.883
00:50:48.712 : ru:00:50:48.712
00:56:44.067 : ru:00:56:44.067
01:04:35.913 : ru:01:04:35.913
01:11:52.808 : ru:01:11:52.808
01:19:04.114 : ru:01:19:04.114
01:26:17.422 : ru:01:26:17.422
01:34:31.791 : ru:01:34:31.791
01:41:21.241 : ru:01:41:21.241
01:48:46.186 : ru:01:48:46.186
01:56:28.606 : ru:01:56:28.606
02:06:42.553 : ru:02:06:42.553





Релиз от:



   Похожие торренты   Торрент   Размер 
В этой теме нет новых непрочитанных сообщений. Метро (2012) BDRip 1080p

128 | 7

7.76 ГБ

В этой теме нет новых непрочитанных сообщений. Метро (2012) BDRip 1080p от Youtracker | Лицензия

76 | 6

12.09 ГБ

В этой теме нет новых непрочитанных сообщений. Метро (2012) BDRip от BT4G | КПК

10 | 2

997.95 МБ

В этой теме нет новых непрочитанных сообщений. Метро (2012) BDRip 720p

5 | 3

6.89 ГБ

В этой теме нет новых непрочитанных сообщений. Метро (2012) BDRip 720p | 60 FPS

8 | 6

7.24 ГБ

В этой теме нет новых непрочитанных сообщений. Метро (2012) BDRip 720p | 60 FPS

3 | 5

12.83 ГБ

В этой теме нет новых непрочитанных сообщений. Метро (2012) BDRip-AVC | iPad

14 | 4

2.95 ГБ




Вы не можете начинать темы
Вы не можете отвечать на сообщения
Вы не можете редактировать свои сообщения
Вы не можете удалять свои сообщения
Вы не можете добавлять вложения

Перейти:  
Для Мосгорсуда, Роскомнадзора и рекламодателей: mosgorsud-torrent[собачка]yandex.ru
 Вход
ppkBB3cker v.2 © 2008-2014 @ PPK
[ Time : 0.020s | 14 Queries | GZIP : Off ]

Торрент трекер RUTOR.IN, Не можете зайти на rutor.org? Какой новый адрес рутор? Какое зеркало рутор? Не работает rutor.org и зеркала? Тогда наш торрент специально для вас. Rutor.in неофициальное зеркало rutor. В случае если у Вас заблокирован rutor или вдруг Вы не можете на него зайти, то Вы без труда сможете скачать бесплатно и без рекламы последние новинки кино, игр, сериалов и прочего у нас, на Rutor.in. Не нужно использовать прокси, чтобы зайти на рутор, достаточно воспользоваться нашим ресурсом. Все новые фильмы, игры, сериалы, книги и музыка за 2013 и 2014 годы через торрент бесплатно. Скачивайте фильмы в хорошем качестве, игры для пк, xbox, playstation без регистрации. У нас вы найдете новые Зарубежные сериалы и Русские сериалы 2013, 2014, 2015 годов. Оставайтесь с нами, качайте любимые фильмы, игры, сериалы, книги и музыку.