img image001 image001 image001 image001 image001 image001 image001 image001 image001 image001 image001 image001 image001 image001 image001

Planets Sun Sun Sun
Статистика раздачи
Автор: Снежана | Размер: 7.76 ГБ | Добавлен: 24 июл 2013
Раздают: 128    Качают: 7
Скачать торрент
Скачать торрент
Описание торрента

СообщениеДобавлено: 24 июл 2013 

#77

Информация о фильме
Название: Метро
Год выхода: 2012
Жанр: триллер, драма
Режиссер: Антон Мегердичев
В ролях: Сергей Пускепалис, Анатолий Белый, Анфиса Вистингаузен, Алексей Бардуков, Катерина Шпица, Елена Панова, Станислав Дужников, Светлана Ходченкова, Сергей Сосновский, Ярослав Жалнин

О фильме: Широко развернувшееся в центре Москвы строительство новых зданий приводит к тому, что в одном из тоннелей метро между двумя станциями возникает трещина. Никто себе и представить не мог, что в результате нарушения герметичности перекрытия в тоннель хлынет вода из Москва-реки, и сотни пассажиров поезда окажутся во власти надвигающегося потопа. Бешеный поток воды грозит не только обрушением тоннелей метро, но и разрушением всего города.

Среди попавших в беду людей — врач городской больницы Андрей Гарин и его дочь Ксюша. Гарин сражается с катастрофой, пытаясь спасти оставшихся в живых пассажиров, в том числе и …любовника своей жены. Гарину придется побороть обиду, гнев и страх. Он должен выжить, чтобы вернуть свою любовь, семью… свою прежнюю счастливую жизнь.



Выпущено: Профит
Продолжительность: 02:11:45
Перевод: Оригинал (лицензия)

Файл
Кодек: x264
Качество: BDRip (источник: Blu-ray Disc)
Видео: 1920x816 (2,35:1), 23.976 fps, 7790 kbps
Аудио: AC-3, 6 ch, 640 kbps
Скачать: сэмпл

Скриншоты

Общее
Уникальный идентификатор : 218275435669757075713516725675607969456 (0xA43651DC51BCA4FAAD4C28D93053CEB0)
Полное имя : Metro.2012.BDRip.1080p.Rus.mkv
Формат : Matroska
Версия формата : Version 2
Размер файла : 7,76 Гбайт
Продолжительность : 2 ч. 11 м.
Общий поток : 8430 Кбит/сек
Название фильма : Метро (2012)
Дата кодирования : UTC 2013-03-09 00:46:51
Программа кодирования : mkvmerge v5.8.0 ('No Sleep / Pillow') built on Sep 2 2012 15:37:04
Библиотека кодирования : libebml v1.2.3 + libmatroska v1.3.0

Видео
Идентификатор : 1
Формат : AVC
Формат/Информация : Advanced Video Codec
Профиль формата : High@L4.1
Параметр CABAC формата : Да
Параметр ReFrames формата : 5 кадров
Идентификатор кодека : V_MPEG4/ISO/AVC
Продолжительность : 2 ч. 11 м.
Битрейт : 7790 Кбит/сек
Ширина : 1920 пикселей
Высота : 816 пикселей
Соотношение сторон : 2,35:1
Частота кадров : 23,976 кадра/сек
Цветовое пространство : YUV
Субдискретизация насыщенности : 4:2:0
Битовая глубина : 8 бит
Тип развёртки : Прогрессивная
Бит/(Пиксели*Кадры) : 0.207
Размер потока : 7,01 Гбайт (90%)
Заголовок : Release by AlexKa
Библиотека кодирования : x264 core 130 r2273 b3065e6
Настройки программы : cabac=1 / ref=5 / deblock=1:-3:-3 / analyse=0x3:0x133 / me=umh / subme=10 / psy=1 / psy_rd=1.00:0.00 / mixed_ref=1 / me_range=32 / chroma_me=1 / trellis=2 / 8x8dct=1 / cqm=0 / deadzone=21,11 / fast_pskip=0 / chroma_qp_offset=-2 / threads=12 / lookahead_threads=1 / sliced_threads=0 / nr=0 / decimate=0 / interlaced=0 / bluray_compat=0 / constrained_intra=0 / bframes=3 / b_pyramid=2 / b_adapt=2 / b_bias=0 / direct=3 / weightb=1 / open_gop=0 / weightp=2 / keyint=240 / keyint_min=23 / scenecut=40 / intra_refresh=0 / rc=2pass / mbtree=0 / bitrate=7790 / ratetol=1.0 / qcomp=0.60 / qpmin=0 / qpmax=69 / qpstep=4 / cplxblur=20.0 / qblur=0.5 / ip_ratio=1.40 / pb_ratio=1.30 / aq=1:0.70
Язык : Russian

Аудио
Идентификатор : 2
Формат : AC-3
Формат/Информация : Audio Coding 3
Расширение режима : CM (complete main)
Идентификатор кодека : A_AC3
Продолжительность : 2 ч. 11 м.
Вид битрейта : Постоянный
Битрейт : 640 Кбит/сек
Каналы : 6 каналов
Расположение каналов : Front: L C R, Side: L R, LFE
Частота : 48,0 КГц
Битовая глубина : 16 бит
Метод сжатия : С потерями
Размер потока : 603 Мбайт (8%)
Заголовок : Rus
Язык : Russian

Меню
00:00:00.000 : :Chapter 01
00:06:11.120 : :Chapter 02
00:13:05.284 : :Chapter 03
00:19:35.757 : :Chapter 04
00:26:29.129 : :Chapter 05
00:33:53.406 : :Chapter 06
00:41:08.883 : :Chapter 07
00:50:48.712 : :Chapter 08
00:56:44.067 : :Chapter 09
01:04:35.913 : :Chapter 10
01:11:52.808 : :Chapter 11
01:19:04.114 : :Chapter 12
01:26:17.422 : :Chapter 13
01:34:31.791 : :Chapter 14
01:41:21.241 : :Chapter 15
01:48:46.186 : :Chapter 16
01:56:28.606 : :Chapter 17
02:06:42.553 : :Chapter 18
02:11:44.813 : :Chapter 19
x264 [info]: frame I:2812 Avg QP:16.54 size:151423
x264 [info]: frame P:62758 Avg QP:19.33 size: 63863
x264 [info]: frame B:123958 Avg QP:21.68 size: 26316



   Похожие торренты   Торрент   Размер 
В этой теме нет новых непрочитанных сообщений. Метро (2012) BDRip 1080p

11 | 3

11.5 ГБ

В этой теме нет новых непрочитанных сообщений. Метро (2012) BDRip 1080p от Youtracker | Лицензия

76 | 6

12.09 ГБ

В этой теме нет новых непрочитанных сообщений. Метро (2012) BDRip 720p

5 | 3

6.89 ГБ

В этой теме нет новых непрочитанных сообщений. Метро (2012) BDRip 720p | 60 FPS

8 | 6

7.24 ГБ

В этой теме нет новых непрочитанных сообщений. Метро (2012) BDRip-AVC | iPad

14 | 4

2.95 ГБ

В этой теме нет новых непрочитанных сообщений. Метро (2012) BDRip 720p | 60 FPS

3 | 5

12.83 ГБ

В этой теме нет новых непрочитанных сообщений. Метро (2012) BDRip от HELLYWOOD

62 | 5

2.18 ГБ




Вы не можете начинать темы
Вы не можете отвечать на сообщения
Вы не можете редактировать свои сообщения
Вы не можете удалять свои сообщения
Вы не можете добавлять вложения

Перейти:  
Для Мосгорсуда, Роскомнадзора и рекламодателей: mosgorsud-torrent[собачка]yandex.ru
 Вход
ppkBB3cker v.2 © 2008-2014 @ PPK
[ Time : 0.033s | 14 Queries | GZIP : Off ]

Торрент трекер RUTOR.IN, Не можете зайти на rutor.org? Какой новый адрес рутор? Какое зеркало рутор? Не работает rutor.org и зеркала? Тогда наш торрент специально для вас. Rutor.in неофициальное зеркало rutor. В случае если у Вас заблокирован rutor или вдруг Вы не можете на него зайти, то Вы без труда сможете скачать бесплатно и без рекламы последние новинки кино, игр, сериалов и прочего у нас, на Rutor.in. Не нужно использовать прокси, чтобы зайти на рутор, достаточно воспользоваться нашим ресурсом. Все новые фильмы, игры, сериалы, книги и музыка за 2013 и 2014 годы через торрент бесплатно. Скачивайте фильмы в хорошем качестве, игры для пк, xbox, playstation без регистрации. У нас вы найдете новые Зарубежные сериалы и Русские сериалы 2013, 2014, 2015 годов. Оставайтесь с нами, качайте любимые фильмы, игры, сериалы, книги и музыку.