img image001 image001 image001 image001 image001 image001 image001 image001 image001 image001 image001 image001 image001 image001 image001

Planets Sun Sun Sun
Статистика раздачи
Автор: Снежана | Размер: 744.94 МБ | Добавлен: 24 июл 2013
Раздают: 3    Качают: 2
Скачать торрент
Скачать торрент
Описание торрента

СообщениеДобавлено: 24 июл 2013 

#77
Страна: СССР
Производство: Одесская киностудия
Жанр: драма
Год выпуска: 1958
Продолжительность: 1:23:57

Перевод: не требуется
Оригинальная аудиодорожка: русский
Cубтитры: нет

Режиссер: Марлен Хуциев

В ролях: Василий Шукшин, Николай Чурсин, Татьяна Сёмина, Юрий Елин, Марина Шаманская, Игорь Политаев, Александр Александровский, Дмитрий Иванов...

Описание:
После окончания Второй мировой войны, вернувшийся на родину Федор-большой встречает мальчишку-беспризорника Федора-малого. Они решают жить вместе. И все-то у них было замечательно, пока Федор-большой не женился.
С женитьбой Федора-большого их дружная жизнь разлаживается, хотя Наташа всячески старается снискать любовь мальчика. Доведенный ревностью до отчаяния, мальчик убегает из дому. Но после долгих волнений и поисков его находят, и он примиряется со взрослыми…





Исходник: DVD5 R5
Тип релиза: DVDRip
Контейнер: AVI

Видео: 624x480 (1,300:1), 25 fps, XviD ~ 1103 kbps avg, 0.147 bit/pixel
Аудио: 48 kHz, MP3 2.0, 128 kbps

Раздача от:
Общее
Полное имя : Dva.Fedora.1958.DVDRip-745_[Youtracker]_by_AVP Studio.avi
Формат : AVI
Формат/Информация : Audio Video Interleave
Размер файла : 745 Мбайт
Продолжительность : 1 ч. 23 м.
Общий поток : 1241 Кбит/сек
Программа кодирования : VirtualDubMod 1.5.10.3 | www.virtualdub-fr.org || (build 2550/release)
Библиотека кодирования : VirtualDubMod build 2550/release

Видео
Идентификатор : 0
Формат : MPEG-4 Visual
Профиль формата : Advanced Simple@L5
Параметр BVOP формата : 1
Параметр QPel формата : Нет
Параметр GMC формата : Без точки перехода
Параметр матрицы формата : Выборочная
Идентификатор кодека : XVID
Идентификатор кодека/Подсказка : XviD
Продолжительность : 1 ч. 23 м.
Битрейт : 1103 Кбит/сек
Ширина : 624 пикселя
Высота : 480 пикселей
Соотношение сторон : 1,300
Частота кадров : 25,000 кадров/сек
Цветовое пространство : YUV
Субдискретизация насыщенности : 4:2:0
Битовая глубина : 8 бит
Тип развёртки : Прогрессивная
Метод сжатия : С потерями
Бит/(Пиксели*Кадры) : 0.147
Размер потока : 662 Мбайт (89%)
Библиотека кодирования : XviD 65

Аудио
Идентификатор : 1
Формат : MPEG Audio
Версия формата : Version 1
Профиль формата : Layer 3
Идентификатор кодека : 55
Идентификатор кодека/Подсказка : MP3
Продолжительность : 1 ч. 23 м.
Вид битрейта : Постоянный
Битрейт : 128 Кбит/сек
Каналы : 2 канала
Частота : 48,0 КГц
Метод сжатия : С потерями
Размер потока : 76,9 Мбайт (10%)
Выравнивание : Соединение по промежуткам
Продолжительность промежутка : 40 мс. (1,00 видеокадр)
Время предзагрузки промежутка : 504 мс.
Библиотека кодирования : L3.99r
Настройки программы : -m s -V 4 -q 2 -lowpass 17 -b 128





   Похожие торренты   Торрент   Размер 
В этой теме нет новых непрочитанных сообщений. Два Фёдора (1958) DVDRip-AVC от Youtracker

23 | 8

1.46 ГБ

В этой теме нет новых непрочитанных сообщений. Два Фёдора (1958) DVDRip от Youtracker

18 | 7

1.46 ГБ

В этой теме нет новых непрочитанных сообщений. Два Фёдора (1958) SATRip-AVC

45 | 9

1.6 ГБ

В этой теме нет новых непрочитанных сообщений. Добровольцы (1958) DVDRip от Youtracker

9 | 4

744.85 МБ

В этой теме нет новых непрочитанных сообщений. Жажда (1958) DVDRip от Youtracker

20 | 5

744.32 МБ

В этой теме нет новых непрочитанных сообщений. Добровольцы (1958) DVDRip-AVC от Youtracker

16 | 9

1.46 ГБ

В этой теме нет новых непрочитанных сообщений. Добровольцы (1958) DVDRip от Youtracker

60 | 15

1.46 ГБ




Вы не можете начинать темы
Вы не можете отвечать на сообщения
Вы не можете редактировать свои сообщения
Вы не можете удалять свои сообщения
Вы не можете добавлять вложения

Перейти:  
Для Мосгорсуда, Роскомнадзора и рекламодателей: mosgorsud-torrent[собачка]yandex.ru
 Вход
ppkBB3cker v.2 © 2008-2014 @ PPK
[ Time : 0.629s | 14 Queries | GZIP : Off ]

Торрент трекер RUTOR.IN, Не можете зайти на rutor.org? Какой новый адрес рутор? Какое зеркало рутор? Не работает rutor.org и зеркала? Тогда наш торрент специально для вас. Rutor.in неофициальное зеркало rutor. В случае если у Вас заблокирован rutor или вдруг Вы не можете на него зайти, то Вы без труда сможете скачать бесплатно и без рекламы последние новинки кино, игр, сериалов и прочего у нас, на Rutor.in. Не нужно использовать прокси, чтобы зайти на рутор, достаточно воспользоваться нашим ресурсом. Все новые фильмы, игры, сериалы, книги и музыка за 2013 и 2014 годы через торрент бесплатно. Скачивайте фильмы в хорошем качестве, игры для пк, xbox, playstation без регистрации. У нас вы найдете новые Зарубежные сериалы и Русские сериалы 2013, 2014, 2015 годов. Оставайтесь с нами, качайте любимые фильмы, игры, сериалы, книги и музыку.