img image001 image001 image001 image001 image001 image001 image001 image001 image001 image001 image001 image001 image001 image001 image001 image001

Planets Sun Sun Sun
Статистика раздачи
Автор: Снежана | Размер: 12.09 ГБ | Добавлен: 24 июл 2013
Раздают: 76    Качают: 6
Скачать торрент
Скачать торрент
Описание торрента

СообщениеДобавлено: 24 июл 2013 

#77


Метро
«А будет ли следующая остановка?»


#77

Страна: Россия
Студия: Профит
Жанр: триллер, драма
Год выпуска: 2012
Продолжительность: 02:11:44

Перевод: Профессиональный (оригинальный) [лицензия]
Русские субтитры: нет
Режиссер: Антон Мегердичев
В ролях: Сергей Пускепалис, Анатолий Белый, Светлана Ходченкова, Анфиса Вистингаузен, Алексей Бардуков, Катерина Шпица, Елена Панова, Станислав Дужников, Сергей Сосновский, Ярослав Жалнин


Широко развернувшееся в центре Москвы строительство новых зданий приводит к тому, что в одном из тоннелей метро между двумя станциями возникает трещина. Никто себе и представить не мог, что в результате нарушения герметичности перекрытия в тоннель хлынет вода из Москва-реки, и сотни пассажиров поезда окажутся во власти надвигающегося потопа. Бешеный поток воды грозит не только обрушением тоннелей метро, но и разрушением всего города.
Среди попавших в беду людей — врач городской больницы Андрей Гарин и его дочь Ксюша. Гарин сражается с катастрофой, пытаясь спасти оставшихся в живых пассажиров, в том числе и …любовника своей жены. Гарину придется побороть обиду, гнев и страх. Он должен выжить, чтобы вернуть свою любовь, семью… свою прежнюю счастливую жизнь.

Тип релиза: BDRip 1080p
Контейнер: MKV
Видео кодек: x264
Аудио кодек: AC3
Видео: AVC / High@L4.1 / 2 pass / 23,976 fps / 1920x816p / 12,5 Mbps / 0.333
Аудио: AC3 / 5.1 ch / 640 kbps / Русский original BD RUS
Субтитры: нет
Дополнительно: Сохранены оригинальные чаптеры как на Blu-ray
Рип от: Killbrain


Раздача от:











x264 [info]: frame I:2118 Avg QP:14.55 size:226562
x264 [info]: frame P:45962 Avg QP:16.73 size:114887
x264 [info]: frame B:141447 Avg QP:18.82 size: 46570

Общее
Уникальный идентификатор : 184121040011161085734385845044515596926 (0x8A846C24B1ECBE8FBAA541B7258A6A7E)
Полное имя : F:Скачка торрентMetro.2012.BDRip1080p(Killbrain).mkv
Формат : Matroska
Версия формата : Version 4 / Version 2
Размер файла : 12,1 Гбайт
Продолжительность : 2 ч. 11 м.
Общий поток : 13,1 Мбит/сек
Название фильма : Metro (2012) by Killbrain
Дата кодирования : UTC 2013-03-11 02:39:04
Программа кодирования : mkvmerge v6.1.0 ('Old Devil') built on Mar 2 2013 14:32:37
Библиотека кодирования : libebml v1.3.0 + libmatroska v1.4.0

Видео
Идентификатор : 1
Формат : AVC
Формат/Информация : Advanced Video Codec
Профиль формата : High@L4.1
Параметр CABAC формата : Да
Параметр ReFrames формата : 4 кадра
Идентификатор кодека : V_MPEG4/ISO/AVC
Продолжительность : 2 ч. 11 м.
Битрейт : 12,5 Мбит/сек
Ширина : 1920 пикселей
Высота : 816 пикселей
Соотношение сторон : 2,35:1
Режим частоты кадров : Постоянный
Частота кадров : 23,976 кадра/сек
Цветовое пространство : YUV
Субдискретизация насыщенности : 4:2:0
Битовая глубина : 8 бит
Тип развёртки : Прогрессивная
Бит/(Пиксели*Кадры) : 0.333
Размер потока : 11,3 Гбайт (93%)
Заголовок : Metro (2012)
Библиотека кодирования : x264 core 128 r2216 198a7ea
Настройки программы : cabac=1 / ref=4 / deblock=1:-3:-3 / analyse=0x3:0x113 / me=umh / subme=10 / psy=1 / psy_rd=1.00:0.15 / mixed_ref=1 / me_range=16 / chroma_me=1 / trellis=2 / 8x8dct=1 / cqm=0 / deadzone=21,11 / fast_pskip=1 / chroma_qp_offset=-3 / threads=3 / lookahead_threads=1 / sliced_threads=0 / nr=0 / decimate=0 / interlaced=0 / bluray_compat=0 / constrained_intra=0 / bframes=7 / b_pyramid=2 / b_adapt=2 / b_bias=0 / direct=3 / weightb=1 / open_gop=0 / weightp=2 / keyint=240 / keyint_min=23 / scenecut=40 / intra_refresh=0 / rc_lookahead=60 / rc=2pass / mbtree=0 / bitrate=12500 / ratetol=1.0 / qcomp=0.70 / qpmin=0 / qpmax=69 / qpstep=4 / cplxblur=20.0 / qblur=0.5 / vbv_maxrate=40000 / vbv_bufsize=40000 / nal_hrd=none / ip_ratio=1.40 / pb_ratio=1.30 / aq=1:0.90
Язык : Russian
Default : Да
Forced : Нет

Аудио
Идентификатор : 2
Формат : AC-3
Формат/Информация : Audio Coding 3
Расширение режима : CM (complete main)
Параметр Endianness формата : Big
Идентификатор кодека : A_AC3
Продолжительность : 2 ч. 11 м.
Вид битрейта : Постоянный
Битрейт : 640 Кбит/сек
Каналы : 6 каналов
Расположение каналов : Front: L C R, Side: L R, LFE
Частота : 48,0 КГц
Битовая глубина : 16 бит
Метод сжатия : С потерями
Размер потока : 603 Мбайт (5%)
Заголовок : AC3 / 5.1 ch / 640 kbps / Русский оригинальный, BD RUS
Язык : Russian
Default : Да
Forced : Нет

Меню
00:00:00.000 : :Chapter 01
00:06:11.120 : :Chapter 02
00:13:05.284 : :Chapter 03
00:19:35.757 : :Chapter 04
00:26:29.129 : :Chapter 05
00:33:53.406 : :Chapter 06
00:41:08.883 : :Chapter 07
00:50:48.712 : :Chapter 08
00:56:44.067 : :Chapter 09
01:04:35.913 : :Chapter 10
01:11:52.808 : :Chapter 11
01:19:04.114 : :Chapter 12
01:26:17.422 : :Chapter 13
01:34:31.791 : :Chapter 14
01:41:21.241 : :Chapter 15
01:48:46.186 : :Chapter 16
01:56:28.606 : :Chapter 17
02:06:42.553 : :Chapter 18









   Похожие торренты   Торрент   Размер 
В этой теме нет новых непрочитанных сообщений. Метро (2012) BDRip-AVC от ExKinoRay | FRE-Transfer

24 | 0

744.84 МБ

В этой теме нет новых непрочитанных сообщений. Метро (2012) BDRip 720p от HELLYWOOD | FRE-Transfer

143 | 37

5.68 ГБ

В этой теме нет новых непрочитанных сообщений. Метро (2012) BDRip 720p от KORSAR | GER Transfer

6 | 0

6.57 ГБ

В этой теме нет новых непрочитанных сообщений. Метро (2012) HDTVRip от Deadmauvlad

782 | 33

1.45 ГБ

В этой теме нет новых непрочитанных сообщений. Метро (2012) HDTVRip от Deadmauvlad

303 | 24

2.18 ГБ

В этой теме нет новых непрочитанных сообщений. Метро (2012) HDRip от Portablius | GER Transfer

0 | 0

797.33 МБ

В этой теме нет новых непрочитанных сообщений. Метро (2012) HDRip от Scarabey | France Transfer

1317 | 139

1.45 ГБ




Вы не можете начинать темы
Вы не можете отвечать на сообщения
Вы не можете редактировать свои сообщения
Вы не можете удалять свои сообщения
Вы не можете добавлять вложения

Перейти:  
 Вход
ppkBB3cker v.2 © 2008-2014 @ PPK
[ Time : 0.023s | 17 Queries | GZIP : Off ]

cron