img image001 image001 image001 image001 image001 image001 image001 image001 image001 image001 image001 image001 image001 image001 image001

Planets Sun Sun Sun
Статистика раздачи
Автор: Снежана | Размер: 2.1 ГБ | Добавлен: 24 июл 2013
Раздают: 34    Качают: 6
Скачать торрент
Скачать торрент
Описание торрента

СообщениеДобавлено: 24 июл 2013 

#77

Страна: Россия, Украина
Жанр: военный
Год выпуска: 2011
Продолжительность: 01:50:39
Перевод: Не требуется
Субтитры: русские (на немецкую речь).


Режиссер: Александр Березань


В ролях: Евгения Хиривская, Дмитрий Орлов (Сева), Александр Кобзарь, Виктория Малекторович, Сергей Калантай, Дирк Мартенс, Евгений Ермаков, Юрий Шульган, Михаил Жонин, Владимир Левицкий, Дмитрий Суржиков, Алексей Арестович


Описание: В октябре 1941 советские люди еще верили, что война с немцами не продлится дольше нескольких месяцев. Тем не менее по приказу руководства в тыл перевозят не только заводы, но и исторические ценности. В небольшом городке эвакуируют музей, уютно разместившийся в старинном монастыре. Молодая девушка Ася, ее отец-профессор да его заместитель Феденька - вот и вся охрана, на которую возложена миссия спасти для народа культурное достояние. Среди прочих экспонатов есть один особенный - он должен стать основой для выставки под патронатом самого товарища Сталина, но и у немцев на эту вещицу есть планы. Путь неблизкий, а дорога полна опасностей. Случается так, что вместо родных людей сопровождать Асеньку станет совсем чужой человек, судьба которого полна неприятных загадок, а повадки и привычки заставляют скорее опасаться его, чем доверять... но одной ей не выжить.






Семпл


Качество: BDRip
Контейнер: MKV

Видео: AVC, 1024x576 (16:9), 2521 kbps, 25 fps, 0.171 bpp
Аудио: русский / AC3 / 2.0 / 48 kHz / 192 kbps
Навигация по главам: есть


General
Unique ID : 243149326625487423474975340149567000328 (0xB6ECDB5E7D96E374A4836358C6A60F08)
Complete name : C:TorrentDostavit.BDRipAVC.mkv
Format : Matroska
Format version : Version 2
File size : 2.10 GiB
Duration : 1h 50mn
Overall bit rate : 2 714 Kbps
Movie name : = Доставить любой ценой BDRip by SC Kosmos =
Encoded date : UTC 2013-03-13 09:05:24
Writing application : mkvmerge v3.3.0 ('Language') gebaut am Mar 24 2010 14:59:24
Writing library : libebml v0.8.0 + libmatroska v0.9.0

Video
ID : 1
Format : AVC
Format/Info : Advanced Video Codec
Format profile : High@L4.1
Format settings, CABAC : Yes
Format settings, ReFrames : 12 frames
Codec ID : V_MPEG4/ISO/AVC
Duration : 1h 50mn
Bit rate : 2 521 Kbps
Width : 1 024 pixels
Height : 576 pixels
Display aspect ratio : 16:9
Frame rate : 25.000 fps
Color space : YUV
Chroma subsampling : 4:2:0
Bit depth : 8 bits
Scan type : Progressive
Bits/(Pixel*Frame) : 0.171
Stream size : 1.91 GiB (91%)
Title : Доставить любой ценой BDRip by SC Kosmos
Writing library : x264 core 130 r2273 b3065e6
Encoding settings : cabac=1 / ref=12 / deblock=1:-2:-2 / analyse=0x3:0x112 / me=umh / subme=11 / psy=1 / psy_rd=1.00:0.15 / mixed_ref=1 / me_range=32 / chroma_me=1 / trellis=2 / 8x8dct=1 / cqm=0 / deadzone=21,11 / fast_pskip=1 / chroma_qp_offset=-3 / threads=12 / lookahead_threads=1 / sliced_threads=0 / nr=0 / decimate=1 / interlaced=0 / bluray_compat=0 / constrained_intra=0 / bframes=10 / b_pyramid=2 / b_adapt=1 / b_bias=0 / direct=3 / weightb=1 / open_gop=0 / weightp=1 / keyint=250 / keyint_min=25 / scenecut=40 / intra_refresh=0 / rc=2pass / mbtree=0 / bitrate=2521 / ratetol=1.0 / qcomp=0.60 / qpmin=0 / qpmax=69 / qpstep=4 / cplxblur=20.0 / qblur=0.5 / ip_ratio=1.40 / pb_ratio=1.30 / aq=1:1.00
Language : Russian
Default : No
Forced : No

Audio
ID : 2
Format : AC-3
Format/Info : Audio Coding 3
Mode extension : CM (complete main)
Codec ID : A_AC3
Duration : 1h 50mn
Bit rate mode : Constant
Bit rate : 192 Kbps
Channel(s) : 2 channels
Channel positions : Front: L R
Sampling rate : 48.0 KHz
Bit depth : 16 bits
Compression mode : Lossy
Stream size : 152 MiB (7%)
Language : Russian
Default : Yes
Forced : No

Text
ID : 3
Format : UTF-8
Codec ID : S_TEXT/UTF8
Codec ID/Info : UTF-8 Plain Text
Title : forced
Language : Russian
Default : Yes
Forced : Yes

Menu
00:00:00.000 : en:Chapter 01
00:10:00.000 : en:Chapter 02
00:20:00.000 : en:Chapter 03
00:30:00.000 : en:Chapter 04
00:40:00.000 : en:Chapter 05
00:45:00.000 : en:Chapter 06
00:50:00.000 : en:Chapter 07
01:00:00.000 : en:Chapter 08
01:10:00.000 : en:Chapter 09
01:20:00.000 : en:Chapter 10
01:30:00.000 : en:Chapter 11
01:40:00.000 : en:Chapter 12
01:50:39.080 : en:Chapter 13









За русские субтитры огромное спасибо - fanatus.



   Похожие торренты   Торрент   Размер 
В этой теме нет новых непрочитанных сообщений. Доставить любой ценой [01-04 из 04] (2011) SATRip

2 | 6

1.99 ГБ

В этой теме нет новых непрочитанных сообщений. Доставить любой ценой [01-04 из 4] (2011) DVDRip-AVC

47 | 9

2.61 ГБ

В этой теме нет новых непрочитанных сообщений. Доставить любой ценой [01-04 из 04] (2011) DVDRip Jonni3009

20 | 3

1.96 ГБ

В этой теме нет новых непрочитанных сообщений. Доставить любой ценой [01-04 из 4] (2011) DVD5 | сжатый

0 | 3

4.36 ГБ

В этой теме нет новых непрочитанных сообщений. Доставить любой ценой [01-04 из 04] (2011) DVDRip | КПК от Kino@rena

9 | 1

577.33 МБ

В этой теме нет новых непрочитанных сообщений. Доставить по назначению / The Package (1989) BDRip-AVC | D, P, P2, A

82 | 17

4.21 ГБ

В этой теме нет новых непрочитанных сообщений. Доставить по назначению / The Package (1989) BDRip от HQCLUB

58 | 2

1.45 ГБ




Вы не можете начинать темы
Вы не можете отвечать на сообщения
Вы не можете редактировать свои сообщения
Вы не можете удалять свои сообщения
Вы не можете добавлять вложения

Перейти:  
Для Мосгорсуда, Роскомнадзора и рекламодателей: mosgorsud-torrent[собачка]yandex.ru
 Вход
ppkBB3cker v.2 © 2008-2014 @ PPK
[ Time : 0.023s | 14 Queries | GZIP : Off ]

Торрент трекер RUTOR.IN, Не можете зайти на rutor.org? Какой новый адрес рутор? Какое зеркало рутор? Не работает rutor.org и зеркала? Тогда наш торрент специально для вас. Rutor.in неофициальное зеркало rutor. В случае если у Вас заблокирован rutor или вдруг Вы не можете на него зайти, то Вы без труда сможете скачать бесплатно и без рекламы последние новинки кино, игр, сериалов и прочего у нас, на Rutor.in. Не нужно использовать прокси, чтобы зайти на рутор, достаточно воспользоваться нашим ресурсом. Все новые фильмы, игры, сериалы, книги и музыка за 2013 и 2014 годы через торрент бесплатно. Скачивайте фильмы в хорошем качестве, игры для пк, xbox, playstation без регистрации. У нас вы найдете новые Зарубежные сериалы и Русские сериалы 2013, 2014, 2015 годов. Оставайтесь с нами, качайте любимые фильмы, игры, сериалы, книги и музыку.