img image001 image001 image001 image001 image001 image001 image001 image001 image001 image001 image001 image001 image001 image001 image001

Planets Sun Sun Sun
Статистика раздачи
Автор: Снежана | Размер: 1.46 ГБ | Добавлен: 24 июл 2013
Раздают: 58    Качают: 13
Скачать торрент
Скачать торрент
Описание торрента

СообщениеДобавлено: 24 июл 2013 

#77
Страна: СССР
Производство: Студия Горького
Жанр: фэнтези, семейный
Год выпуска: 1958
Продолжительность: 01:23:25

Перевод: не требуется
Оригинальная аудиодорожка: русский
Cубтитры: нет

Режиссер: Александр Роу

В ролях: Мария Барабанова, Анатолий Кубацкий, Вячеслав Жариков, О. Горелова, Я. Асмус, О. Крылова, Степан Каюков, Константин Злобин, Тамара Носова, Георгий Милляр, Лидия Вертинская, Владимир Володин, Никита Кондратьев, Лев Потемкин...

Описание:
Вместе с традиционными сказочными персонажами в картине действуют и обычные школьники, участвующие в школьном спектакле по сказке «Кот в сапогах».. . Любе приснился сон. Она, дочь шахматного короля, становится жертвой коварного заговора и похищена колдуньей. На ее поиски отправляется сын мельника Ваня и его друг — волшебный кот. Много трудностей пришлось им испытать, пока они не достигли замка колдуньи и не спасли принцессу…





Исходник: DVD5 R5
Тип релиза: DVDRip-AVC
Контейнер: MKV

Видео: 696x572@768x572 (4:3), 25 fps, H264 ~ 1601 kbps avg, 0.161 bit/pixel
Аудио: 48 kHz, Dolby AC3 5.1, 448 kbps Русский
Аудио: 48 kHz, Dolby AC3 5.1, 448 kbps Английский

Раздача от:
Общее
Полное имя : Novye.pohozhdenija.Kota.v.sapogah.1958.DVDRip-AVC_[Youtracker]_by_AVP Studio.mkv
Формат : Matroska
Версия формата : Version 2
Размер файла : 1,46 Гбайт
Продолжительность : 1 ч. 23 м.
Общий поток : 2499 Кбит/сек
Название фильма : Novye.pohozhdenija.Kota.v.sapogah.1958.DVDRip-AVC_[Youtracker]_by_AVP Studio
Дата кодирования : UTC 2013-03-15 08:51:35
Программа кодирования : mkvmerge v5.8.0 ('No Sleep / Pillow') built on Sep 2 2012 15:37:04
Библиотека кодирования : libebml v1.2.3 + libmatroska v1.3.0

Видео
Идентификатор : 1
Формат : AVC
Формат/Информация : Advanced Video Codec
Профиль формата : High@L4.1
Параметр CABAC формата : Да
Параметр ReFrames формата : 11 кадров
Идентификатор кодека : V_MPEG4/ISO/AVC
Продолжительность : 1 ч. 23 м.
Битрейт : 1601 Кбит/сек
Ширина : 696 пикселей
Высота : 572 пикселя
Соотношение сторон : 4:3
Частота кадров : 25,000 кадров/сек
Цветовое пространство : YUV
Субдискретизация насыщенности : 4:2:0
Битовая глубина : 8 бит
Тип развёртки : Прогрессивная
Бит/(Пиксели*Кадры) : 0.161
Размер потока : 927 Мбайт (62%)
Заголовок : Источник DVD
Библиотека кодирования : x264 core 119 r2106 07efeb4
Настройки программы : cabac=1 / ref=11 / deblock=1:-2:-1 / analyse=0x3:0x113 / me=umh / subme=9 / psy=1 / psy_rd=1.00:0.20 / mixed_ref=1 / me_range=32 / chroma_me=1 / trellis=1 / 8x8dct=1 / cqm=0 / deadzone=21,11 / fast_pskip=0 / chroma_qp_offset=-3 / threads=3 / sliced_threads=0 / nr=0 / decimate=0 / interlaced=0 / bluray_compat=0 / constrained_intra=0 / bframes=8 / b_pyramid=2 / b_adapt=2 / b_bias=0 / direct=3 / weightb=1 / open_gop=0 / weightp=2 / keyint=250 / keyint_min=25 / scenecut=40 / intra_refresh=0 / rc_lookahead=60 / rc=2pass / mbtree=1 / bitrate=1601 / ratetol=1.0 / qcomp=0.60 / qpmin=0 / qpmax=69 / qpstep=4 / cplxblur=20.0 / qblur=0.5 / ip_ratio=1.40 / aq=1:1.00
Язык : Russian
Default : Да
Forced : Нет

Аудио #1
Идентификатор : 2
Формат : AC-3
Формат/Информация : Audio Coding 3
Расширение режима : CM (complete main)
Идентификатор кодека : A_AC3
Продолжительность : 1 ч. 23 м.
Вид битрейта : Постоянный
Битрейт : 448 Кбит/сек
Каналы : 6 каналов
Расположение каналов : Front: L C R, Side: L R, LFE
Частота : 48,0 КГц
Битовая глубина : 16 бит
Метод сжатия : С потерями
Размер потока : 267 Мбайт (18%)
Заголовок : Dolby Digital 5,1 источник DVD
Язык : Russian
Default : Да
Forced : Нет

Аудио #2
Идентификатор : 3
Формат : AC-3
Формат/Информация : Audio Coding 3
Расширение режима : CM (complete main)
Идентификатор кодека : A_AC3
Продолжительность : 1 ч. 23 м.
Вид битрейта : Постоянный
Битрейт : 448 Кбит/сек
Каналы : 6 каналов
Расположение каналов : Front: L C R, Side: L R, LFE
Частота : 48,0 КГц
Битовая глубина : 16 бит
Метод сжатия : С потерями
Размер потока : 267 Мбайт (18%)
Заголовок : Dolby Digital 5,1 источник DVD
Язык : English
Default : Нет
Forced : Нет

Меню
00:00:00.000 : ru:00:00:00.000000000
00:05:00.000 : :00:05:00.000000000
00:10:00.000 : :00:10:00.000000000
00:15:00.000 : :00:15:00.000000000
00:20:00.000 : :00:20:00.000000000
00:25:00.000 : :00:25:00.000000000
00:30:00.000 : :00:30:00.000000000
00:35:00.000 : :00:35:00.000000000
00:40:00.000 : :00:40:00.000000000
00:45:00.000 : :00:45:00.000000000
00:50:00.000 : :00:50:00.000000000
00:55:00.000 : :00:55:00.000000000
01:00:00.000 : :01:00:00.000000000
01:05:00.000 : :01:05:00.000000000
01:10:00.000 : :01:10:00.000000000
01:15:00.000 : :01:15:00.000000000
01:20:00.000 : :01:20:00.000000000





   Похожие торренты   Торрент   Размер 
В этой теме нет новых непрочитанных сообщений. Новые похождения кота в сапогах (1958) DVDRip от Youtracker

22 | 5

1.46 ГБ

В этой теме нет новых непрочитанных сообщений. Новые похождения Кота в сапогах (1958) DVDRip

9 | 5

744.88 МБ

В этой теме нет новых непрочитанных сообщений. Сказки Александра Роу: Марья-искусница; Новые похождения Кота в сапогах (1958-1959) DVD5

120 | 19

4.13 ГБ

В этой теме нет новых непрочитанных сообщений. Правдивая история Кота в сапогах / La veritable histoire du Chat Botte (2009) DVDRip от RAMpage CHG

6 | 3

700.89 МБ

В этой теме нет новых непрочитанных сообщений. Новые похождения Швейка (1943) DVDRip

48 | 5

697.35 МБ

В этой теме нет новых непрочитанных сообщений. Новые похождения Швейка (1943) DVDRip-AVC от New-Team

318 | 8

745.16 МБ

В этой теме нет новых непрочитанных сообщений. Новые похождения Швейка (1943) DVDRip от New-Team

189 | 12

744.32 МБ




Вы не можете начинать темы
Вы не можете отвечать на сообщения
Вы не можете редактировать свои сообщения
Вы не можете удалять свои сообщения
Вы не можете добавлять вложения

Перейти:  
Для Мосгорсуда, Роскомнадзора и рекламодателей: mosgorsud-torrent[собачка]yandex.ru
 Вход
ppkBB3cker v.2 © 2008-2014 @ PPK
[ Time : 0.050s | 15 Queries | GZIP : Off ]

Торрент трекер RUTOR.IN, Не можете зайти на rutor.org? Какой новый адрес рутор? Какое зеркало рутор? Не работает rutor.org и зеркала? Тогда наш торрент специально для вас. Rutor.in неофициальное зеркало rutor. В случае если у Вас заблокирован rutor или вдруг Вы не можете на него зайти, то Вы без труда сможете скачать бесплатно и без рекламы последние новинки кино, игр, сериалов и прочего у нас, на Rutor.in. Не нужно использовать прокси, чтобы зайти на рутор, достаточно воспользоваться нашим ресурсом. Все новые фильмы, игры, сериалы, книги и музыка за 2013 и 2014 годы через торрент бесплатно. Скачивайте фильмы в хорошем качестве, игры для пк, xbox, playstation без регистрации. У нас вы найдете новые Зарубежные сериалы и Русские сериалы 2013, 2014, 2015 годов. Оставайтесь с нами, качайте любимые фильмы, игры, сериалы, книги и музыку.
cron