img image001 image001 image001 image001 image001 image001 image001 image001 image001 image001 image001 image001 image001 image001 image001

Planets Sun Sun Sun
Статистика раздачи
Автор: Снежана | Размер: 1.46 ГБ | Добавлен: 24 июл 2013
Раздают: 1    Качают: 2
Скачать торрент
Скачать торрент
Описание торрента

СообщениеДобавлено: 24 июл 2013 

#77
Страна: Франция, СССР
Производство: Alkan, Franco London Films, Мосфильм
Жанр: военный
Год выпуска: 1960
Продолжительность: 01:53:41

Перевод: не требуется
Оригинальная аудиодорожка: русский
Cубтитры: нет

Режиссер: Жан Древиль

В ролях: Виталий Доронин, Николай Лебедев, Владимир Гусев, Николай Рыбников, Юрий Медведев, Марк Кассо, Жан-Клод Мишель, Жак Ришар, Жерар Дарье, Нина Гребешкова...

Описание:
Фильм рассказывает о славной французской эскадрилье «Нормандия-Неман», сражавшейся в годы Второй мировой войны в российском небе, и похороненной в братской могиле на Введенском кладбище (в народе его называют «немецким») в Москве…





Исходник: DVD5 R5
Тип релиза: DVDRip
Контейнер: AVI

Видео: 688x528 (4:3), 25 fps, XviD ~ 1633 kbps avg, 0.180 bit/pixel
Аудио: 48 kHz, Dolby AC3 2.0, 192 kbps

Раздача от:
Общее
Полное имя : Normandija–Neman.1960.DVDRip_[Youtracker]_by_AVP Studio.avi
Формат : AVI
Формат/Информация : Audio Video Interleave
Размер файла : 1,46 Гбайт
Продолжительность : 1 ч. 53 м.
Общий поток : 1835 Кбит/сек
Программа кодирования : VirtualDubMod 1.5.10.3 | www.virtualdub-fr.org || (build 2550/release)
Библиотека кодирования : VirtualDubMod build 2550/release

Видео
Идентификатор : 0
Формат : MPEG-4 Visual
Профиль формата : Advanced Simple@L5
Параметр BVOP формата : 1
Параметр QPel формата : Нет
Параметр GMC формата : Без точки перехода
Параметр матрицы формата : Выборочная
Идентификатор кодека : XVID
Идентификатор кодека/Подсказка : XviD
Продолжительность : 1 ч. 53 м.
Битрейт : 1633 Кбит/сек
Ширина : 688 пикселей
Высота : 528 пикселей
Соотношение сторон : 4:3
Частота кадров : 25,000 кадров/сек
Цветовое пространство : YUV
Субдискретизация насыщенности : 4:2:0
Битовая глубина : 8 бит
Тип развёртки : Прогрессивная
Метод сжатия : С потерями
Бит/(Пиксели*Кадры) : 0.180
Размер потока : 1,30 Гбайт (89%)
Библиотека кодирования : XviD 65

Аудио
Идентификатор : 1
Формат : AC-3
Формат/Информация : Audio Coding 3
Расширение режима : CM (complete main)
Идентификатор кодека : 2000
Продолжительность : 1 ч. 53 м.
Вид битрейта : Постоянный
Битрейт : 192 Кбит/сек
Каналы : 2 канала
Расположение каналов : Front: L R
Частота : 48,0 КГц
Битовая глубина : 16 бит
Метод сжатия : С потерями
Размер потока : 156 Мбайт (10%)
Выравнивание : Разделение по промежуткам
Продолжительность промежутка : 40 мс. (1,00 видеокадр)
Время предзагрузки промежутка : 500 мс





   Похожие торренты   Торрент   Размер 
В этой теме нет новых непрочитанных сообщений. Нормандия - Неман (1960) DVDRip от Youtracker

2 | 2

895.8 МБ

В этой теме нет новых непрочитанных сообщений. Нормандия - Неман (1960) DVDRip-AVC от Youtracker

8 | 5

1.46 ГБ

В этой теме нет новых непрочитанных сообщений. Нормандия - Неман (1960) DVDRip

13 | 9

1.38 ГБ

В этой теме нет новых непрочитанных сообщений. Испытательный срок (1960) DVDRip-AVC от Youtracker

63 | 7

1.46 ГБ

В этой теме нет новых непрочитанных сообщений. Испытательный срок (1960) DVDRip от Youtracker

33 | 6

1.46 ГБ

В этой теме нет новых непрочитанных сообщений. Шумный день (1960) DVDRip от Youtracker

9 | 8

746.86 МБ

В этой теме нет новых непрочитанных сообщений. Шумный день (1960) DVDRip от Youtracker

101 | 13

1.46 ГБ




Вы не можете начинать темы
Вы не можете отвечать на сообщения
Вы не можете редактировать свои сообщения
Вы не можете удалять свои сообщения
Вы не можете добавлять вложения

Перейти:  
Для Мосгорсуда, Роскомнадзора и рекламодателей: mosgorsud-torrent[собачка]yandex.ru
 Вход
ppkBB3cker v.2 © 2008-2014 @ PPK
[ Time : 0.039s | 15 Queries | GZIP : Off ]

cron