img image001 image001 image001 image001 image001 image001 image001 image001 image001 image001 image001 image001 image001 image001 image001

Planets Sun Sun Sun
Статистика раздачи
Автор: Снежана | Размер: 1.61 ГБ | Добавлен: 24 июл 2013
Раздают: 1    Качают: 3
Скачать торрент
Скачать торрент
Описание торрента

СообщениеДобавлено: 24 июл 2013 

#77

Информация о фильме
Название: Человек идет за солнцем
Год выхода: 1961
Жанр: Киноповесть, семейный
Режиссер: Михаил Калик
В ролях: Нику Кримнус, Татьяна Бестаева, Николай Волков, Георгий Георгиу, Михаил Греку, Людмила Долгорукова, Евгений Евстигнеев, Валентин Зубков, Лев Круглый, Валентина Телегина, Наум Кавуновский, Анатолий Папанов, Лариса Лужина, Сергей Троицкий

О фильме:
Поэтический рассказ о мальчике, идущем по любимому городу за солнцем и встречающем на своем пути людей — добрых и злых, чутких и равнодушных...

Страна: СССР
Студия: Молдова-Филм
Продолжительность: 01:08:24
Перевод: Не требуется

Файл
Формат: m4v
Кодек: H.264
Качество: DVDRip-AVC
Видео: 704x576 (анаморф 769x576), 3200kbps, 25fps
Аудио: AAC, 2 channels, 48.0 KHz, 160kbps VBR
Метатэги: Прописаны
Навигация по главам: есть

Раздача будет полезна пользователям iOS и OS X платформ.
При просмотре на Windows рекомендую пользоваться iTunes или VLC media player.

General
Format : MPEG-4
Format profile : Base Media / Version 2
Codec ID : mp42
File size : 1.61 GiB
Duration : 1h 8mn
Overall bit rate mode : Variable
Overall bit rate : 3 367 Kbps
Movie name : Человек идет за солнцем
Performer : Михаил Калик
Composer : Микаэл Таривердиев
Genre : семейный, драма
Recorded date : 1961-06-06
Encoded date : UTC 2013-02-15 11:13:24
Tagged date : UTC 2013-03-16 08:40:09
Cover : Yes
desc : Рассказ о мальчике, идущем по любимому городу вслед за солнцем. На своем пути маленький наблюдатель встречает разных людей — добрых и злых, чутких и равнодушных...
ldes : Рассказ о мальчике, идущем по любимому городу вслед за солнцем. На своем пути маленький наблюдатель встречает разных людей — добрых и злых, чутких и равнодушных...
stik : 9
rtng : 0

Video #1
ID : 1
Format : AVC
Format/Info : Advanced Video Codec
Format profile : High@L3.1
Format settings, CABAC : Yes
Format settings, ReFrames : 9 frames
Codec ID : avc1
Codec ID/Info : Advanced Video Coding
Duration : 1h 8mn
Bit rate mode : Variable
Bit rate : 3 200 Kbps
Width : 704 pixels
Height : 576 pixels
Display aspect ratio : 4:3
Original display aspect ratio : 4:3
Frame rate mode : Constant
Frame rate : 25.000 fps
Standard : PAL
Color space : YUV
Chroma subsampling : 4:2:0
Bit depth : 8 bits
Scan type : Progressive
Bits/(Pixel*Frame) : 0.316
Stream size : 1.53 GiB (95%)
Writing library : x264 core 120
Encoding settings : cabac=1 / ref=9 / deblock=1:0:0 / analyse=0x3:0x113 / me=umh / subme=9 / psy=1 / psy_rd=1.00:0.00 / mixed_ref=1 / me_range=32 / chroma_me=1 / trellis=1 / 8x8dct=1 / cqm=0 / deadzone=21,11 / fast_pskip=1 / chroma_qp_offset=-2 / threads=6 / sliced_threads=0 / nr=0 / decimate=1 / interlaced=0 / bluray_compat=0 / constrained_intra=0 / bframes=6 / b_pyramid=2 / b_adapt=2 / b_bias=0 / direct=1 / weightb=1 / open_gop=0 / weightp=2 / keyint=250 / keyint_min=25 / scenecut=40 / intra_refresh=0 / rc_lookahead=40 / rc=2pass / mbtree=1 / bitrate=3200 / ratetol=1.0 / qcomp=0.60 / qpmin=3 / qpmax=69 / qpstep=4 / cplxblur=20.0 / qblur=0.5 / ip_ratio=1.40 / aq=1:1.00
Language : Russian
Encoded date : UTC 2013-02-15 11:13:24
Tagged date : UTC 2013-02-15 13:42:34
Color primaries : BT.601-6 525, BT.1358 525, BT.1700 NTSC, SMPTE 170M
Transfer characteristics : BT.709-5, BT.1361
Matrix coefficients : BT.601-6 525, BT.1358 525, BT.1700 NTSC, SMPTE 170M

Video #2
ID : 4
Format : JPEG
Codec ID : jpeg
Duration : 1h 8mn
Bit rate mode : Variable
Bit rate : 1 115 bps
Width : 640 pixels
Height : 479 pixels
Display aspect ratio : 4:3
Frame rate mode : Variable
Frame rate : 0.003 fps
Minimum frame rate : 0.003 fps
Maximum frame rate : 0.090 fps
Color space : YUV
Chroma subsampling : 4:2:0
Bit depth : 8 bits
Compression mode : Lossy
Bits/(Pixel*Frame) : 1.212
Stream size : 635 KiB (0%)
Language : Russian
Encoded date : UTC 2013-02-18 16:41:36
Tagged date : UTC 2013-02-18 16:41:36

Audio
ID : 2
Format : AAC
Format/Info : Advanced Audio Codec
Format profile : LC
Codec ID : 40
Duration : 1h 8mn
Bit rate mode : Variable
Bit rate : 160 Kbps
Maximum bit rate : 208 Kbps
Channel(s) : 2 channels
Channel positions : Front: L R
Sampling rate : 48.0 KHz
Compression mode : Lossy
Stream size : 78.3 MiB (5%)
Language : Russian
Encoded date : UTC 2013-02-15 11:13:24
Tagged date : UTC 2013-02-15 13:42:34

Text
ID : 3
Format : Apple text
Codec ID : text
Duration : 1h 8mn
Bit rate mode : Variable
Bit rate : 1 bps
Stream size : 327 Bytes (0%)
Language : Russian
Encoded date : UTC 2013-02-18 16:41:32
Tagged date : UTC 2013-02-18 16:41:32

Menu
00:00:00.000 : Chapter 1
00:04:02.960 : Chapter 2
00:09:31.840 : Chapter 3
00:14:43.880 : Chapter 4
00:20:10.280 : Chapter 5
00:25:31.440 : Chapter 6
00:30:53.040 : Chapter 7
00:36:11.800 : Chapter 8
00:41:33.920 : Chapter 9
00:46:51.160 : Chapter 10
00:52:15.240 : Chapter 11
00:57:40.680 : Chapter 12
01:02:51.760 : Chapter 13
01:08:12.880 : Chapter 14



   Похожие торренты   Торрент   Размер 
В этой теме нет новых непрочитанных сообщений. Человек идет за Солнцем (1961) DVD5

3 | 4

2.32 ГБ

В этой теме нет новых непрочитанных сообщений. Человек за солнцем / Hei tai yang 731 (1988) DVDRip от MediaClub | КПК

40 | 3

456.57 МБ

В этой теме нет новых непрочитанных сообщений. Человек за солнцем / Люди позади солнца / Hei tai yang 731 / Man Behind the Sun (1988) DVDRip

91 | 25

1.5 ГБ

В этой теме нет новых непрочитанных сообщений. Человек ниоткуда (1961) DVDRip

25 | 11

1.44 ГБ

В этой теме нет новых непрочитанных сообщений. Девчата (1961) BDRip-AVC | iPad

363 | 19

3.05 ГБ

В этой теме нет новых непрочитанных сообщений. Человек-амфибия (1961) Blu-Ray

2 | 6

33.17 ГБ

В этой теме нет новых непрочитанных сообщений. Человек-амфибия (1961) BDRip-AVC

12 | 0

749.92 МБ




Вы не можете начинать темы
Вы не можете отвечать на сообщения
Вы не можете редактировать свои сообщения
Вы не можете удалять свои сообщения
Вы не можете добавлять вложения

Перейти:  
Для Мосгорсуда, Роскомнадзора и рекламодателей: mosgorsud-torrent[собачка]yandex.ru
 Вход
ppkBB3cker v.2 © 2008-2014 @ PPK
[ Time : 0.035s | 15 Queries | GZIP : Off ]

cron