img image001 image001 image001 image001 image001 image001 image001 image001 image001 image001 image001 image001 image001 image001 image001

Planets Sun Sun Sun
Статистика раздачи
Автор: Снежана | Размер: 4.37 ГБ | Добавлен: 24 июл 2013
Раздают: 313    Качают: 11
Скачать торрент
Скачать торрент
Описание торрента

СообщениеДобавлено: 24 июл 2013 

#77

Информация о фильме
Название: Рассказы
Год выхода: 2012
Жанр: драма, комедия
Режиссер: Михаил Сегал
В ролях: Андрей Мерзликин, Игорь Угольников, Тамара Миронова, Константин Юшкевич, Дарья Носик, Любовь Новикова, Владислав Лешкевич, Сергей Фетисов, Елена Нестерова, Василий Мичков

О фильме: Рукопись молодого писателя попадает в литературное издательство и начинает влиять на жизнь любого, кто откроет её и прочтет хотя бы страницу. Четыре рассказа из рукописи — это четыре истории с непредсказуемой развязкой.



Выпущено: R.U. Media
Продолжительность: 01:50:17
Перевод: Оригинал (лицензия)

Файл
Кодек: x264
Качество: BDRip (источник: Blu-ray Disc)
Видео: 1920x1080 (16:9), 24 fps, 5445 kbps
Аудио: AC-3, 2 ch, 224 kbps
Субтитры: Русские
Скачать: сэмпл

Скриншоты

Общее
Уникальный идентификатор : 174337605397603840715155381374324507001 (0x832833935409F806AF414961A99F0179)
Полное имя : Rasskazy.2012.BDRip.1080p.Rus.mkv
Формат : Matroska
Версия формата : Version 2
Размер файла : 4,37 Гбайт
Продолжительность : 1 ч. 50 м.
Общий поток : 5678 Кбит/сек
Название фильма : Рассказы (2012)
Дата кодирования : UTC 2013-03-16 15:03:40
Программа кодирования : mkvmerge v5.8.0 ('No Sleep / Pillow') built on Sep 2 2012 15:37:04
Библиотека кодирования : libebml v1.2.3 + libmatroska v1.3.0

Видео
Идентификатор : 1
Формат : AVC
Формат/Информация : Advanced Video Codec
Профиль формата : High@L4.1
Параметр CABAC формата : Да
Параметр ReFrames формата : 4 кадра
Идентификатор кодека : V_MPEG4/ISO/AVC
Продолжительность : 1 ч. 50 м.
Битрейт : 5445 Кбит/сек
Ширина : 1920 пикселей
Высота : 1080 пикселей
Соотношение сторон : 16:9
Частота кадров : 24,000 кадра/сек
Цветовое пространство : YUV
Субдискретизация насыщенности : 4:2:0
Битовая глубина : 8 бит
Тип развёртки : Прогрессивная
Бит/(Пиксели*Кадры) : 0.109
Размер потока : 4,11 Гбайт (94%)
Заголовок : Release by AlexKa
Библиотека кодирования : x264 core 130 r2273 b3065e6
Настройки программы : cabac=1 / ref=4 / deblock=1:-3:-3 / analyse=0x3:0x133 / me=umh / subme=10 / psy=1 / psy_rd=1.00:0.00 / mixed_ref=1 / me_range=32 / chroma_me=1 / trellis=2 / 8x8dct=1 / cqm=0 / deadzone=21,11 / fast_pskip=0 / chroma_qp_offset=-2 / threads=12 / lookahead_threads=1 / sliced_threads=0 / nr=0 / decimate=0 / interlaced=0 / bluray_compat=0 / constrained_intra=0 / bframes=5 / b_pyramid=2 / b_adapt=2 / b_bias=0 / direct=3 / weightb=1 / open_gop=0 / weightp=2 / keyint=240 / keyint_min=24 / scenecut=40 / intra_refresh=0 / rc=2pass / mbtree=0 / bitrate=5445 / ratetol=1.0 / qcomp=0.60 / qpmin=0 / qpmax=69 / qpstep=4 / cplxblur=20.0 / qblur=0.5 / ip_ratio=1.40 / pb_ratio=1.30 / aq=1:0.70
Язык : Russian

Аудио
Идентификатор : 2
Формат : AC-3
Формат/Информация : Audio Coding 3
Расширение режима : CM (complete main)
Идентификатор кодека : A_AC3
Продолжительность : 1 ч. 50 м.
Вид битрейта : Постоянный
Битрейт : 224 Кбит/сек
Каналы : 2 канала
Расположение каналов : Front: L R
Частота : 48,0 КГц
Битовая глубина : 16 бит
Метод сжатия : С потерями
Размер потока : 177 Мбайт (4%)
Заголовок : Rus
Язык : Russian

Текст
Идентификатор : 3
Формат : PGS
Режим смешивания : zlib
Идентификатор кодека : S_HDMV/PGS
Идентификатор кодека/Информация : The same subtitle format used on BDs/HD-DVDs
Заголовок : Rus
Язык : Russian

Меню
00:00:00.000 : :Chapter 01
00:09:34.166 : :Chapter 02
00:22:31.166 : :Chapter 03
00:32:15.791 : :Chapter 04
00:46:23.000 : :Chapter 05
00:59:25.958 : :Chapter 06
01:17:34.416 : :Chapter 07
01:32:22.250 : :Chapter 08
x264 [info]: frame I:1204 Avg QP:17.00 size:156219
x264 [info]: frame P:35045 Avg QP:19.86 size: 55486
x264 [info]: frame B:122559 Avg QP:21.65 size: 19337



   Похожие торренты   Торрент   Размер 
В этой теме нет новых непрочитанных сообщений. Рассказы (2012) BDRip 1080p

19 | 3

9.5 ГБ

В этой теме нет новых непрочитанных сообщений. Рассказы (2012) Blu-Ray Remux 1080p от HQ-films

37 | 16

20.37 ГБ

В этой теме нет новых непрочитанных сообщений. Рассказы (2012) BDRip-AVC | Лицензия

344 | 6

2.18 ГБ

В этой теме нет новых непрочитанных сообщений. Рассказы (2012) BDRip от HQCLUB | Лицензия

286 | 12

1.45 ГБ

В этой теме нет новых непрочитанных сообщений. Рассказы (2012) BDRip 720p от Neofilm | Лицензия

53 | 4

4.34 ГБ

В этой теме нет новых непрочитанных сообщений. Рассказы (2012) Blu-Ray

12 | 2

21.61 ГБ

В этой теме нет новых непрочитанных сообщений. Рассказы (2012) DVD5 R5 от Youtracker

6 | 3

4.24 ГБ




Вы не можете начинать темы
Вы не можете отвечать на сообщения
Вы не можете редактировать свои сообщения
Вы не можете удалять свои сообщения
Вы не можете добавлять вложения

Перейти:  
Для Мосгорсуда, Роскомнадзора и рекламодателей: mosgorsud-torrent[собачка]yandex.ru
 Вход
ppkBB3cker v.2 © 2008-2014 @ PPK
[ Time : 0.034s | 14 Queries | GZIP : Off ]

Торрент трекер RUTOR.IN, Не можете зайти на rutor.org? Какой новый адрес рутор? Какое зеркало рутор? Не работает rutor.org и зеркала? Тогда наш торрент специально для вас. Rutor.in неофициальное зеркало rutor. В случае если у Вас заблокирован rutor или вдруг Вы не можете на него зайти, то Вы без труда сможете скачать бесплатно и без рекламы последние новинки кино, игр, сериалов и прочего у нас, на Rutor.in. Не нужно использовать прокси, чтобы зайти на рутор, достаточно воспользоваться нашим ресурсом. Все новые фильмы, игры, сериалы, книги и музыка за 2013 и 2014 годы через торрент бесплатно. Скачивайте фильмы в хорошем качестве, игры для пк, xbox, playstation без регистрации. У нас вы найдете новые Зарубежные сериалы и Русские сериалы 2013, 2014, 2015 годов. Оставайтесь с нами, качайте любимые фильмы, игры, сериалы, книги и музыку.