img image001 image001 image001 image001 image001 image001 image001 image001 image001 image001 image001 image001 image001 image001 image001

Planets Sun Sun Sun
Статистика раздачи
Автор: Снежана | Размер: 4.34 ГБ | Добавлен: 24 июл 2013
Раздают: 53    Качают: 4
Скачать торрент
Скачать торрент
Описание торрента

СообщениеДобавлено: 24 июл 2013 

#77

Информация о фильме
Название: Рассказы
Год выхода: 2012
Жанр: драма, комедия
Режиссер: Михаил Сегал
В ролях: Андрей Мерзликин, Игорь Угольников, Тамара Миронова, Константин Юшкевич, Дарья Носик, Любовь Новикова, Владислав Лешкевич, Сергей Фетисов, Елена Нестерова, Василий Мичков

О фильме:
Рукопись молодого писателя попадает в литературное издательство и начинает влиять на жизнь любого, кто откроет её и прочтет хотя бы страницу. Четыре рассказа из рукописи — это четыре истории с непредсказуемой развязкой.

Страна: Россия
Продолжительность: 01:50:17
Перевод: не требуется

Файл
Кодек: x.264
Качество: BDRip 720p
Видео: 5000 kb/s, 1280x720, 24 fps
Звук: AC3, 640 kb/s (2Ch)
Субтитры: нет



General
Format : Matroska
Format version : Version 2
File size : 4.34 GiB
Duration : 1h 50mn
Overall bit rate : 5 629 Kbps
Movie name : Рассказы (2012)-Release for HDCLUB
Encoded date : UTC 2013-03-17 05:28:49
Writing application : mkvmerge v3.3.0 ('Language') built on Mar 24 2010 14:59:24
Writing library : libebml v0.8.0 + libmatroska v0.9.0

Video
ID : 1
Format : AVC
Format/Info : Advanced Video Codec
Format profile : High@L4.1
Format settings, CABAC : Yes
Format settings, ReFrames : 9 frames
Codec ID : V_MPEG4/ISO/AVC
Duration : 1h 50mn
Bit rate : 5 000 Kbps
Width : 1 280 pixels
Height : 720 pixels
Display aspect ratio : 16:9
Frame rate mode : Constant
Frame rate : 24.000 fps
Color space : YUV
Chroma subsampling : 4:2:0
Bit depth : 8 bits
Scan type : Progressive
Bits/(Pixel*Frame) : 0.226
Stream size : 3.76 GiB (87%)
Title : Release for HDCLUB
Writing library : x264 core 130 r2273 b3065e6
Encoding settings : cabac=1 / ref=9 / deblock=1:-3:-3 / analyse=0x3:0x113 / me=umh / subme=10 / psy=1 / psy_rd=1.03:0.10 / mixed_ref=1 / me_range=32 / chroma_me=1 / trellis=2 / 8x8dct=1 / cqm=0 / deadzone=21,11 / fast_pskip=0 / chroma_qp_offset=-3 / threads=12 / lookahead_threads=1 / sliced_threads=0 / nr=0 / decimate=0 / interlaced=0 / bluray_compat=0 / constrained_intra=0 / bframes=6 / b_pyramid=2 / b_adapt=2 / b_bias=0 / direct=3 / weightb=1 / open_gop=0 / weightp=2 / keyint=240 / keyint_min=24 / scenecut=40 / intra_refresh=0 / rc=2pass / mbtree=0 / bitrate=5000 / ratetol=1.0 / qcomp=0.60 / qpmin=0 / qpmax=69 / qpstep=4 / cplxblur=20.0 / qblur=0.5 / ip_ratio=1.40 / pb_ratio=1.30 / aq=2:0.70
Language : Russian
Default : No
Forced : No

Audio
ID : 2
Format : AC-3
Format/Info : Audio Coding 3
Mode extension : CM (complete main)
Format settings, Endianness : Big
Codec ID : A_AC3
Duration : 1h 50mn
Bit rate mode : Constant
Bit rate : 640 Kbps
Channel(s) : 2 channels
Channel positions : Front: L R
Sampling rate : 48.0 KHz
Bit depth : 16 bits
Compression mode : Lossy
Stream size : 505 MiB (11%)
Language : Russian
Default : Yes
Forced : No

Menu
00:00:00.000 : en:Chapter 00
00:09:34.166 : en:Chapter 01
00:22:31.166 : en:Chapter 02
00:32:15.791 : en:Chapter 03
00:46:23.000 : en:Chapter 04
00:59:25.958 : en:Chapter 05
01:17:34.416 : en:Chapter 06
01:32:22.250 : en:Chapter 07


Релиз от: &



   Похожие торренты   Торрент   Размер 
В этой теме нет новых непрочитанных сообщений. Робот и Фрэнк / Robot & Frank (2012) BDRip 720p от Neofilm | Лицензия

3 | 3

4.33 ГБ

В этой теме нет новых непрочитанных сообщений. Рассказы (2012) BDRip-AVC | Лицензия

344 | 6

2.18 ГБ

В этой теме нет новых непрочитанных сообщений. Рассказы (2012) BDRip от HQCLUB | Лицензия

286 | 12

1.45 ГБ

В этой теме нет новых непрочитанных сообщений. Защитник / Safe (2012) BDRip 1080p от Neofilm | Лицензия | US-transfer

2 | 3

13.56 ГБ

В этой теме нет новых непрочитанных сообщений. Люси / Lucy (2014) BDRip 720p от Neofilm | Лицензия

1716 | 222

4.37 ГБ

В этой теме нет новых непрочитанных сообщений. Избави нас от лукавого / Deliver Us from Evil (2014) BDRip 720p от Neofilm | Лицензия

507 | 53

4.37 ГБ

В этой теме нет новых непрочитанных сообщений. Стражи Галактики / Guardians of the Galaxy (2014) BDRip 720p от Neofilm | Лицензия

1291 | 45

4.37 ГБ




Вы не можете начинать темы
Вы не можете отвечать на сообщения
Вы не можете редактировать свои сообщения
Вы не можете удалять свои сообщения
Вы не можете добавлять вложения

Перейти:  
Для Мосгорсуда, Роскомнадзора и рекламодателей: mosgorsud-torrent[собачка]yandex.ru
 Вход
ppkBB3cker v.2 © 2008-2014 @ PPK
[ Time : 0.183s | 15 Queries | GZIP : Off ]

Торрент трекер RUTOR.IN, Не можете зайти на rutor.org? Какой новый адрес рутор? Какое зеркало рутор? Не работает rutor.org и зеркала? Тогда наш торрент специально для вас. Rutor.in неофициальное зеркало rutor. В случае если у Вас заблокирован rutor или вдруг Вы не можете на него зайти, то Вы без труда сможете скачать бесплатно и без рекламы последние новинки кино, игр, сериалов и прочего у нас, на Rutor.in. Не нужно использовать прокси, чтобы зайти на рутор, достаточно воспользоваться нашим ресурсом. Все новые фильмы, игры, сериалы, книги и музыка за 2013 и 2014 годы через торрент бесплатно. Скачивайте фильмы в хорошем качестве, игры для пк, xbox, playstation без регистрации. У нас вы найдете новые Зарубежные сериалы и Русские сериалы 2013, 2014, 2015 годов. Оставайтесь с нами, качайте любимые фильмы, игры, сериалы, книги и музыку.
cron