img image001 image001 image001 image001 image001 image001 image001 image001 image001 image001 image001 image001 image001 image001 image001

Planets Sun Sun Sun
Статистика раздачи
Автор: Снежана | Размер: 1.46 ГБ | Добавлен: 24 июл 2013
Раздают: 46    Качают: 17
Скачать торрент
Скачать торрент
Описание торрента

СообщениеДобавлено: 24 июл 2013 

#77
Страна: СССР
Производство: Студия Горького
Жанр: комедия
Год выпуска: 1962
Продолжительность: 01:34:21

Перевод: не требуется
Оригинальная аудиодорожка: русский
Cубтитры: нет

Режиссер: Фрунзе Довлатян, Лев Мирский

В ролях: Александр Демьяненко, Татьяна Конюхова, Владимир Селезнёв, Евгений Кудряшёв, Владимир Высоцкий, Николай Казаков, Алексей Ванин, Ровшан Алиев, Виталий Черменёв, Ю. Каракаев, Валентина Маркова, Маргарита Жарова, Валентина Валевская, Валентина Ананьина, Сергей Васильев, Инна Фёдорова, Людмила Голубева, Наталия Киндинова, Георгий Тимофеев, Зиновий Гердт (текст от автора)...

Описание:
Из-за своей финансовой ошибки служащему сберкассы Диме Горину пришлось ехать на далекую сибирскую стройку, где он встретил совершенно незнакомую жизнь и девушку своей мечты…





Исходник: DVD5 R5
Тип релиза: DVDRip
Контейнер: AVI

Видео: 704x528 (4:3), 25 fps, XviD ~ 1815 kbps avg, 0.195 bit/pixel
Аудио: 48 kHz, Dolby AC3 5.1, 384 kbps

Раздача от:
Общее
Полное имя : Kar'era.Dimy.Gorina.1962.DVDRip_[Youtracker]_by_AVP Studio.avi
Формат : AVI
Формат/Информация : Audio Video Interleave
Размер файла : 1,46 Гбайт
Продолжительность : 1 ч. 34 м.
Общий поток : 2208 Кбит/сек
Программа кодирования : VirtualDubMod 1.5.10.3 | www.virtualdub-fr.org || (build 2550/release)
Библиотека кодирования : VirtualDubMod build 2550/release

Видео
Идентификатор : 0
Формат : MPEG-4 Visual
Профиль формата : Advanced Simple@L5
Параметр BVOP формата : 1
Параметр QPel формата : Нет
Параметр GMC формата : Без точки перехода
Параметр матрицы формата : Выборочная
Идентификатор кодека : XVID
Идентификатор кодека/Подсказка : XviD
Продолжительность : 1 ч. 34 м.
Битрейт : 1815 Кбит/сек
Ширина : 704 пикселя
Высота : 528 пикселей
Соотношение сторон : 4:3
Частота кадров : 25,000 кадров/сек
Цветовое пространство : YUV
Субдискретизация насыщенности : 4:2:0
Битовая глубина : 8 бит
Тип развёртки : Прогрессивная
Метод сжатия : С потерями
Бит/(Пиксели*Кадры) : 0.195
Размер потока : 1,20 Гбайт (82%)
Библиотека кодирования : XviD 65

Аудио
Идентификатор : 1
Формат : AC-3
Формат/Информация : Audio Coding 3
Расширение режима : CM (complete main)
Идентификатор кодека : 2000
Продолжительность : 1 ч. 34 м.
Вид битрейта : Постоянный
Битрейт : 384 Кбит/сек
Каналы : 6 каналов
Расположение каналов : Front: L C R, Side: L R, LFE
Частота : 48,0 КГц
Битовая глубина : 16 бит
Метод сжатия : С потерями
Размер потока : 259 Мбайт (17%)
Выравнивание : Разделение по промежуткам
Продолжительность промежутка : 40 мс. (1,00 видеокадр)
Время предзагрузки промежутка : 500 мс



http://rutor.org/torrent/208325/karera-dimy-gorina-1962-dvdrip-ot-kinomagija
http://www.check2pic.ru/compare/28083/
Конкурент обрезал по краям черные полосы, а затем растянул картинку до 720, из-за этого появились артефакты и картинка размазалась.



   Похожие торренты   Торрент   Размер 
В этой теме нет новых непрочитанных сообщений. Карьера Димы Горина (1962) DVDRip-AVC от Youtracker

362 | 15

1.46 ГБ

В этой теме нет новых непрочитанных сообщений. Карьера Димы Горина (1962) DVDRip от Youtracker

217 | 28

744.21 МБ

В этой теме нет новых непрочитанных сообщений. Карьера через постель / Карьера в кровати / Career Bed (1969) DVDRip | L1

198 | 10

746.81 МБ

В этой теме нет новых непрочитанных сообщений. 713-й просит посадку (1962) DVDRip от Youtracker

34 | 9

1.34 ГБ

В этой теме нет новых непрочитанных сообщений. 713-й просит посадку (1962) DVDRip-AVC от Youtracker

12 | 6

1.38 ГБ

В этой теме нет новых непрочитанных сообщений. Гусарская Баллада (1962) DVDRip-AVC от Youtracker

17 | 7

1.46 ГБ

В этой теме нет новых непрочитанных сообщений. Гусарская Баллада (1962) DVDRip от Youtracker

24 | 8

746.13 МБ




Вы не можете начинать темы
Вы не можете отвечать на сообщения
Вы не можете редактировать свои сообщения
Вы не можете удалять свои сообщения
Вы не можете добавлять вложения

Перейти:  
Для Мосгорсуда, Роскомнадзора и рекламодателей: mosgorsud-torrent[собачка]yandex.ru
 Вход
ppkBB3cker v.2 © 2008-2014 @ PPK
[ Time : 0.543s | 14 Queries | GZIP : Off ]
CGP output time : 0.011s | 5 Queries | GZIP : Off

Торрент трекер RUTOR.IN, Не можете зайти на rutor.org? Какой новый адрес рутор? Какое зеркало рутор? Не работает rutor.org и зеркала? Тогда наш торрент специально для вас. Rutor.in неофициальное зеркало rutor. В случае если у Вас заблокирован rutor или вдруг Вы не можете на него зайти, то Вы без труда сможете скачать бесплатно и без рекламы последние новинки кино, игр, сериалов и прочего у нас, на Rutor.in. Не нужно использовать прокси, чтобы зайти на рутор, достаточно воспользоваться нашим ресурсом. Все новые фильмы, игры, сериалы, книги и музыка за 2013 и 2014 годы через торрент бесплатно. Скачивайте фильмы в хорошем качестве, игры для пк, xbox, playstation без регистрации. У нас вы найдете новые Зарубежные сериалы и Русские сериалы 2013, 2014, 2015 годов. Оставайтесь с нами, качайте любимые фильмы, игры, сериалы, книги и музыку.