img image001 image001 image001 image001 image001 image001 image001 image001 image001 image001 image001 image001 image001 image001 image001

Planets Sun Sun Sun
Статистика раздачи
Автор: Снежана | Размер: 744.44 МБ | Добавлен: 24 июл 2013
Раздают: 7    Качают: 9
Скачать торрент
Скачать торрент
Описание торрента

СообщениеДобавлено: 24 июл 2013 

#77
Страна: СССР
Производство: Мосфильм
Жанр: комедия
Год выпуска: 1959
Продолжительность: 01:15:31

Перевод: не требуется
Оригинальная аудиодорожка: русский
Cубтитры: нет

Режиссер: Юрий Чулюкин

В ролях: Надежда Румянцева, Юрий Никулин, Юрий Белов, Алексей Кожевников, Владимир Козлов, Вера Карпова, Светлана Харитонова, В. Егоров, Константин Нассонов, И. Каширин, Анатолий Кузнецов, Сергей Филиппов, Лилия Гриценко...

Описание:
Есть на заводе два паренька, два друга, из-за которых показатели молодёжной бригады вечно страдают. Уже было твёрдо решено уволить Анатолия Грачкина и его дружка Виктора Громобоева, как ребят взяла на поруки Надя Берестова, маленькая смешная девчонка, общая любимица. На собрании она пожалела друзей, а комсомольцы, не растерявшись, сразу «записали» ей поручение.
Поначалу Надя взялась за него с неохотой и опаской, но постепенно это поручение становится самым главным в жизни. Девушка настолько втягивается в дело перевоспитания, что ради своих подшефных забывает собственные привязанности…





Исходник: DVD5 R5
Тип релиза: DVDRip
Контейнер: AVI

Видео: 672x512 (4:3), 25 fps, XviD ~ 1240 kbps avg, 0.144 bit/pixel
Аудио: 48 kHz, MP3 2.0, 128 kbps

Раздача от:
Общее
Полное имя : Nepoddajushhiesja.1959.DVDRip-745_[Youtracker]_by_AVP Studio.avi
Формат : AVI
Формат/Информация : Audio Video Interleave
Размер файла : 744 Мбайт
Продолжительность : 1 ч. 15 м.
Общий поток : 1378 Кбит/сек
Программа кодирования : VirtualDubMod 1.5.10.3 | www.virtualdub-fr.org || (build 2550/release)
Библиотека кодирования : VirtualDubMod build 2550/release

Видео
Идентификатор : 0
Формат : MPEG-4 Visual
Профиль формата : Advanced Simple@L5
Параметр BVOP формата : 1
Параметр QPel формата : Нет
Параметр GMC формата : Без точки перехода
Параметр матрицы формата : Выборочная
Идентификатор кодека : XVID
Идентификатор кодека/Подсказка : XviD
Продолжительность : 1 ч. 15 м.
Битрейт : 1240 Кбит/сек
Ширина : 672 пикселя
Высота : 512 пикселей
Соотношение сторон : 4:3
Частота кадров : 25,000 кадров/сек
Цветовое пространство : YUV
Субдискретизация насыщенности : 4:2:0
Битовая глубина : 8 бит
Тип развёртки : Прогрессивная
Метод сжатия : С потерями
Бит/(Пиксели*Кадры) : 0.144
Размер потока : 670 Мбайт (90%)
Библиотека кодирования : XviD 65

Аудио
Идентификатор : 1
Формат : MPEG Audio
Версия формата : Version 1
Профиль формата : Layer 3
Идентификатор кодека : 55
Идентификатор кодека/Подсказка : MP3
Продолжительность : 1 ч. 15 м.
Вид битрейта : Постоянный
Битрейт : 128 Кбит/сек
Каналы : 2 канала
Частота : 48,0 КГц
Метод сжатия : С потерями
Размер потока : 69,1 Мбайт (9%)
Выравнивание : Соединение по промежуткам
Продолжительность промежутка : 40 мс. (1,00 видеокадр)
Время предзагрузки промежутка : 504 мс.
Библиотека кодирования : L3.99r
Настройки программы : -m s -V 4 -q 2 -lowpass 17 -b 128





   Похожие торренты   Торрент   Размер 
В этой теме нет новых непрочитанных сообщений. Неподдающиеся (1959) DVDRip-AVC от Youtracker

43 | 23

1.46 ГБ

В этой теме нет новых непрочитанных сообщений. Неподдающиеся (1959) DVDRip от Youtracker

11 | 11

1.46 ГБ

В этой теме нет новых непрочитанных сообщений. Неподдающиеся (1959) DVDRip

440 | 69

1.37 ГБ

В этой теме нет новых непрочитанных сообщений. Баллада о солдате (1959) DVDRip от Youtracker

27 | 7

744.56 МБ

В этой теме нет новых непрочитанных сообщений. Дорогой мой человек (1959) DVDRip-AVC от Youtracker

156 | 2

1.46 ГБ

В этой теме нет новых непрочитанных сообщений. Баллада о солдате (1959) DVDRip-AVC от Youtracker

12 | 3

1.46 ГБ

В этой теме нет новых непрочитанных сообщений. Дорогой мой человек (1959) DVDRip от Youtracker

171 | 11

1.45 ГБ




Вы не можете начинать темы
Вы не можете отвечать на сообщения
Вы не можете редактировать свои сообщения
Вы не можете удалять свои сообщения
Вы не можете добавлять вложения

Перейти:  
Для Мосгорсуда, Роскомнадзора и рекламодателей: mosgorsud-torrent[собачка]yandex.ru
 Вход
ppkBB3cker v.2 © 2008-2014 @ PPK
[ Time : 0.037s | 14 Queries | GZIP : Off ]

Торрент трекер RUTOR.IN, Не можете зайти на rutor.org? Какой новый адрес рутор? Какое зеркало рутор? Не работает rutor.org и зеркала? Тогда наш торрент специально для вас. Rutor.in неофициальное зеркало rutor. В случае если у Вас заблокирован rutor или вдруг Вы не можете на него зайти, то Вы без труда сможете скачать бесплатно и без рекламы последние новинки кино, игр, сериалов и прочего у нас, на Rutor.in. Не нужно использовать прокси, чтобы зайти на рутор, достаточно воспользоваться нашим ресурсом. Все новые фильмы, игры, сериалы, книги и музыка за 2013 и 2014 годы через торрент бесплатно. Скачивайте фильмы в хорошем качестве, игры для пк, xbox, playstation без регистрации. У нас вы найдете новые Зарубежные сериалы и Русские сериалы 2013, 2014, 2015 годов. Оставайтесь с нами, качайте любимые фильмы, игры, сериалы, книги и музыку.