img image001 image001 image001 image001 image001 image001 image001 image001 image001 image001 image001 image001 image001 image001 image001

Planets Sun Sun Sun
Статистика раздачи
Автор: Снежана | Размер: 2.18 ГБ | Добавлен: 24 июл 2013
Раздают: 344    Качают: 6
Скачать торрент
Скачать торрент
Описание торрента

СообщениеДобавлено: 24 июл 2013 


«Когда нет романа»

Русское название: Рассказы
Год выпуска: 2012
Производство: Россия / R.U. Media
Жанр: Драма, Комедия
Перевод: Не требуется [Русский]
Субтитры: Вшитые отключаемые
Язык субтитров: Русский

Дата российской премьеры: 15 ноября 2012, «WDSSPR»
Дата выхода DVD релиза: 14 марта 2013, «Мистерия Звука»
Дата выхода Blu-Ray релиза: 14 марта 2013, «Мистерия Звука»

Режиссер: Михаил Сегал
Актеры: Андрей Мерзликин, Игорь Угольников, Тамара Миронова, Константин Юшкевич, Дарья Носик, Любовь Новикова, Владислав Лешкевич, Сергей Фетисов, Елена Нестерова, Василий Мичков

Описание фильма:
Рукопись молодого писателя попадает в литературное издательство и начинает влиять на жизнь любого, кто откроет её и прочтет хотя бы страницу. Четыре рассказа из рукописи — это четыре истории с непредсказуемой развязкой.



Продолжительность: 01:50:17
Качество видео: BDRip
Автор рипа: MysTeRy

Видеокодек: MPEG-4 AVC/H.264
Битрейт видео: ~2378 Кбит/сек
Размер кадра: 1024x576
Аудиокодек: AC3 2.0
Битрейт аудио: 448 Кбит/сек

Общее
Уникальный идентификатор : 181635219057025439504474743324273220580 (0x88A5ABB53499AB37B491B0D3350B1BE4)
Полное имя : H:Rasskazyi.2012.O.x264.BDRip-MysTeRy.mkv
Формат : Matroska
Версия формата : Version 4 / Version 2
Размер файла : 2,18 Гбайт
Продолжительность : 1 ч. 50 м.
Общий поток : 2832 Кбит/сек
Название фильма : Rasskazyi.2012.O.x264.BDRip-MysTeRy
Дата кодирования : UTC 2013-03-22 14:02:46
Программа кодирования : mkvmerge v6.1.0 ('Old Devil') built on Mar 2 2013 14:32:37
Библиотека кодирования : libebml v1.3.0 + libmatroska v1.4.0

Видео
Идентификатор : 1
Формат : AVC
Формат/Информация : Advanced Video Codec
Профиль формата : High@L4.1
Параметр CABAC формата : Да
Параметр ReFrames формата : 12 кадров
Идентификатор кодека : V_MPEG4/ISO/AVC
Продолжительность : 1 ч. 50 м.
Битрейт : 2378 Кбит/сек
Ширина : 1024 пикселя
Высота : 576 пикселей
Соотношение сторон : 16:9
Частота кадров : 24,000 кадра/сек
Цветовое пространство : YUV
Субдискретизация насыщенности : 4:2:0
Битовая глубина : 8 бит
Тип развёртки : Прогрессивная
Бит/(Пиксели*Кадры) : 0.168
Размер потока : 1,79 Гбайт (82%)
Заголовок : ENCODER........: MysTeRy
Библиотека кодирования : x264 core 130 r2273 b3065e6
Настройки программы : cabac=1 / ref=12 / deblock=1:-3:-3 / analyse=0x3:0x133 / me=umh / subme=11 / psy=1 / psy_rd=1.00:0.00 / mixed_ref=1 / me_range=32 / chroma_me=1 / trellis=2 / 8x8dct=1 / cqm=0 / deadzone=21,11 / fast_pskip=0 / chroma_qp_offset=-2 / threads=12 / lookahead_threads=2 / sliced_threads=0 / nr=0 / decimate=0 / interlaced=0 / bluray_compat=0 / constrained_intra=0 / bframes=8 / b_pyramid=2 / b_adapt=2 / b_bias=0 / direct=3 / weightb=1 / open_gop=0 / weightp=2 / keyint=250 / keyint_min=23 / scenecut=40 / intra_refresh=0 / rc_lookahead=60 / rc=2pass / mbtree=0 / bitrate=2378 / ratetol=1.0 / qcomp=0.70 / qpmin=0 / qpmax=69 / qpstep=4 / cplxblur=20.0 / qblur=0.5 / vbv_maxrate=50000 / vbv_bufsize=61400 / nal_hrd=none / ip_ratio=1.40 / pb_ratio=1.30 / aq=1:0.90
Язык : Russian
Default : Да
Forced : Нет
Основные цвета : BT.709-5, BT.1361, IEC 61966-2-4, SMPTE RP177
Характеристики трансфера : BT.709-5, BT.1361
Коэффициенты матрицы : BT.709-5, BT.1361, IEC 61966-2-4 709, SMPTE RP177

Аудио
Идентификатор : 2
Формат : AC-3
Формат/Информация : Audio Coding 3
Расширение режима : CM (complete main)
Идентификатор кодека : A_AC3
Продолжительность : 1 ч. 50 м.
Вид битрейта : Постоянный
Битрейт : 448 Кбит/сек
Каналы : 2 канала
Расположение каналов : Front: L R
Частота : 48,0 КГц
Битовая глубина : 16 бит
Метод сжатия : С потерями
Размер потока : 353 Мбайт (16%)
Заголовок : Original
Язык : Russian
Default : Да
Forced : Нет

Текст
Идентификатор : 3
Формат : PGS
Режим смешивания : zlib
Идентификатор кодека : S_HDMV/PGS
Идентификатор кодека/Информация : The same subtitle format used on BDs/HD-DVDs
Язык : Russian
Default : Нет
Forced : Нет

Меню
00:00:00.000 : ru:00:00:00.000
00:09:32.572 : ru:00:09:32.572
00:17:06.984 : ru:00:17:06.984
00:26:16.784 : ru:00:26:16.784
00:34:40.203 : ru:00:34:40.203
00:45:42.615 : ru:00:45:42.615
00:52:01.493 : ru:00:52:01.493
01:00:46.768 : ru:01:00:46.768
01:10:10.081 : ru:01:10:10.081
01:19:30.808 : ru:01:19:30.808
01:26:54.543 : ru:01:26:54.543
01:37:05.236 : ru:01:37:05.236
01:48:54.153 : ru:01:48:54.153

Код:
avs [info]: 1024x576p 1:1 @ 10000000/416667 fps (cfr)
x264 [info]: using SAR=1/1
x264 [info]: using cpu capabilities: MMX2 SSE2Fast SSSE3 SSE4.2 AVX
x264 [info]: profile High, level 4.1

x264 [info]: frame I:1198  Avg QP:14.26  size: 79288
x264 [info]: frame P:34022 Avg QP:17.19  size: 25842
x264 [info]: frame B:123588 Avg QP:18.50  size:  8007
x264 [info]: consecutive B-frames:  2.0%  2.4%  7.3% 18.7% 15.2% 47.3%  4.0%  1.1%  2.1%
x264 [info]: mb I  I16..4:  4.8% 75.8% 19.4%
x264 [info]: mb P  I16..4:  1.2% 10.6%  1.6%  P16..4: 32.6% 34.2% 12.5%  1.9%  0.2%    skip: 5.2%
x264 [info]: mb B  I16..4:  0.2%  1.1%  0.1%  B16..8: 32.1% 19.0%  3.0%  direct: 5.6%  skip:38.7%  L0:44.4% L1:42.6% BI:13.0%
x264 [info]: 8x8 transform intra:77.6% inter:55.9%
x264 [info]: direct mvs  spatial:98.4% temporal:1.6%
x264 [info]: coded y,uvDC,uvAC intra: 79.2% 76.1% 56.0% inter: 22.3% 20.1% 8.5%
x264 [info]: i16 v,h,dc,p: 33% 14%  6% 47%
x264 [info]: i8 v,h,dc,ddl,ddr,vr,hd,vl,hu: 11%  9% 11%  9% 12% 12% 11% 12% 13%
x264 [info]: i4 v,h,dc,ddl,ddr,vr,hd,vl,hu: 15% 10% 13%  7% 12% 12% 10%  9% 11%
x264 [info]: i8c dc,h,v,p: 40% 28% 19% 13%
x264 [info]: Weighted P-Frames: Y:2.8% UV:1.3%
x264 [info]: ref P L0: 43.6%  9.4% 18.0%  6.5%  5.7%  3.9%  3.8%  2.2%  2.0%  1.6%  1.6%  1.5%  0.2%  0.0%
x264 [info]: ref B L0: 67.2% 12.7%  6.4%  3.6%  2.6%  2.2%  1.8%  1.4%  1.1%  0.6%  0.3%
x264 [info]: ref B L1: 91.9%  8.1%
x264 [info]: kb/s:2374.26

x264 [total]: encoded 158808 frames, 6.50 fps, 2374.26 kb/s









   Похожие торренты   Торрент   Размер 
В этой теме нет новых непрочитанных сообщений. Рассказы (2012) BDRip от HQCLUB | Лицензия

286 | 12

1.45 ГБ

В этой теме нет новых непрочитанных сообщений. Рассказы (2012) BDRip 720p от Neofilm | Лицензия

53 | 4

4.34 ГБ

В этой теме нет новых непрочитанных сообщений. Рассказы (2012) DVDRip от Scarabey | Лицензия

425 | 15

1.45 ГБ

В этой теме нет новых непрочитанных сообщений. Рассказы (2012) DVDRip от Scarabey | Лицензия

43 | 6

744.94 МБ

В этой теме нет новых непрочитанных сообщений. Кентерберийские рассказы / I racconti di Canterbury (1972) BDRip | Лицензия | В.Огородников

255 | 45

2.18 ГБ

В этой теме нет новых непрочитанных сообщений. Рассказы (2012) BDRip 1080p

19 | 3

9.5 ГБ

В этой теме нет новых непрочитанных сообщений. Рассказы (2012) BDRip 1080p

313 | 11

4.37 ГБ




Вы не можете начинать темы
Вы не можете отвечать на сообщения
Вы не можете редактировать свои сообщения
Вы не можете удалять свои сообщения
Вы не можете добавлять вложения

Перейти:  
Для Мосгорсуда, Роскомнадзора и рекламодателей: mosgorsud-torrent[собачка]yandex.ru
 Вход
ppkBB3cker v.2 © 2008-2014 @ PPK
[ Time : 0.034s | 14 Queries | GZIP : On ]

Торрент трекер RUTOR.IN, Не можете зайти на rutor.org? Какой новый адрес рутор? Какое зеркало рутор? Не работает rutor.org и зеркала? Тогда наш торрент специально для вас. Rutor.in неофициальное зеркало rutor. В случае если у Вас заблокирован rutor или вдруг Вы не можете на него зайти, то Вы без труда сможете скачать бесплатно и без рекламы последние новинки кино, игр, сериалов и прочего у нас, на Rutor.in. Не нужно использовать прокси, чтобы зайти на рутор, достаточно воспользоваться нашим ресурсом. Все новые фильмы, игры, сериалы, книги и музыка за 2013 и 2014 годы через торрент бесплатно. Скачивайте фильмы в хорошем качестве, игры для пк, xbox, playstation без регистрации. У нас вы найдете новые Зарубежные сериалы и Русские сериалы 2013, 2014, 2015 годов. Оставайтесь с нами, качайте любимые фильмы, игры, сериалы, книги и музыку.