img image001 image001 image001 image001 image001 image001 image001 image001 image001 image001 image001 image001 image001 image001 image001

Planets Sun Sun Sun
Статистика раздачи
Автор: Снежана | Размер: 1.37 ГБ | Добавлен: 24 июл 2013
Раздают: 0    Качают: 2
Скачать торрент
Скачать торрент
Описание торрента

СообщениеДобавлено: 24 июл 2013 

#77
Жансебиль / Жансебiл

Год выхода: 1991
Жанр: Драма
Режиссер: Аяган Шажимбаев
В ролях: Касым Жакибаев, Галина Макарова, Кенес Нурланов, Алла Тараканова (II), Виктор Бутаков

О фильме: Современная трагедия двух пожилых людей, переживших ад войны и сталинских репрессий, но не потерявших надежду и любовь к жизни, к родной земле.

Награды, номинации, фестивали: Призы жюри за лучший игровой дебют, за лучшую мужскую роль (К.Жакибаев) КФ в Ашхабаде—93.

Выпущено: Казахстан / Казахфильм, Киностудия "МИРАС"
Продолжительность: 01:14:32
Звук:
Русский
Казахский

Кодек: XviD - Совместимо с бытовыми DVD-плеерами
Качество: DVDRip (Исходник DVD5)
Видео: 704x536 (1.31:1), 25 fps, XviD build 65 ~2228 kbps avg, 0.24 bit/pixel
Аудио#1:Rus: 48 kHz, AC3 Dolby Digital, 2/0 (L,R) ch, ~192 kbps
Аудио#2:Kaz: 48 kHz, AC3 Dolby Digital, 2/0 (L,R) ch, ~192 kbps


Общее
Полное имя : Жансебiл.1991.XviD.DVDRip.Rus.Kaz_SergV.avi
Формат : AVI
Формат/Информация : Audio Video Interleave
Размер файла : 1,37 Гбайт
Продолжительность : 1 ч. 14 м.
Общий поток : 2628 Кбит/сек
Название фильма : Жансебiл.1991.XviD.DVDRip.Rus.Kaz_SergV
Программа кодирования : VirtualDubMod 1.5.10.3 | www.virtualdub-fr.org || (build 2550/release)
Примечание : Рип от SergV

Видео
Идентификатор : 0
Формат : MPEG-4 Visual
Профиль формата : Advanced Simple@L5
Параметр BVOP формата : 2
Параметр QPel формата : Нет
Параметр GMC формата : Без точки перехода
Параметр матрицы формата : Default (MPEG)
Идентификатор кодека : XVID
Идентификатор кодека/Подсказка : XviD
Продолжительность : 1 ч. 14 м.
Битрейт : 2230 Кбит/сек
Ширина : 704 пикселя
Высота : 536 пикселей
Соотношение сторон : 4:3
Частота кадров : 25,000 кадров/сек
Цветовое пространство : YUV
Субдискретизация насыщенности : 4:2:0
Битовая глубина : 8 бит
Тип развёртки : Прогрессивная
Метод сжатия : С потерями
Бит/(Пиксели*Кадры) : 0.236
Размер потока : 1,16 Гбайт (85%)
Библиотека кодирования : XviD 65

Аудио #1
Идентификатор : 1
Формат : AC-3
Формат/Информация : Audio Coding 3
Расширение режима : CM (complete main)
Параметр Endianness формата : Big
Идентификатор кодека : 2000
Продолжительность : 1 ч. 14 м.
Вид битрейта : Постоянный
Битрейт : 192 Кбит/сек
Каналы : 2 канала
Расположение каналов : Front: L R
Частота : 48,0 КГц
Битовая глубина : 16 бит
Метод сжатия : С потерями
Размер потока : 102 Мбайт (7%)
Выравнивание : Разделение по промежуткам
Продолжительность промежутка : 40 мс. (1,00 видеокадр)
Время предзагрузки промежутка : 500 мс.

Аудио #2
Идентификатор : 2
Формат : AC-3
Формат/Информация : Audio Coding 3
Расширение режима : CM (complete main)
Параметр Endianness формата : Big
Идентификатор кодека : 2000
Продолжительность : 1 ч. 14 м.
Вид битрейта : Постоянный
Битрейт : 192 Кбит/сек
Каналы : 2 канала
Расположение каналов : Front: L R
Частота : 48,0 КГц
Битовая глубина : 16 бит
Метод сжатия : С потерями
Размер потока : 102 Мбайт (7%)
Выравнивание : Разделение по промежуткам
Продолжительность промежутка : 40 мс. (1,00 видеокадр)
Время предзагрузки промежутка : 500 мс.



Релиз от:



   Похожие торренты   Торрент   Размер 
В этой теме нет новых непрочитанных сообщений. Курьер на восток (1991) DVDRip от SergV

28 | 4

1.46 ГБ

В этой теме нет новых непрочитанных сообщений. Ночные забавы (1991) DVDRip от SergV | Реставрация

93 | 16

2.28 ГБ

В этой теме нет новых непрочитанных сообщений. Сцены у моря / A Scene at the Sea (1991) DVDRip от SergV

12 | 1

1.37 ГБ

В этой теме нет новых непрочитанных сообщений. Удар из будущего / Future Kick (1991) DVDRip от SergV

4 | 2

1.36 ГБ

В этой теме нет новых непрочитанных сообщений. Если бы красота могла убивать / If Looks Could Kill (1991) DVDRip от SergV

9 | 1

1.45 ГБ

В этой теме нет новых непрочитанных сообщений. Любовники с Нового Моста / Les amants du Pont-Neu (1991) DVDRip от SergV

2 | 1

2.17 ГБ

В этой теме нет новых непрочитанных сообщений. Багси / Bugsy (1991) HDTVRip от SergV

32 | 3

2.17 ГБ




Вы не можете начинать темы
Вы не можете отвечать на сообщения
Вы не можете редактировать свои сообщения
Вы не можете удалять свои сообщения
Вы не можете добавлять вложения

Перейти:  
Для Мосгорсуда, Роскомнадзора и рекламодателей: mosgorsud-torrent[собачка]yandex.ru
 Вход
ppkBB3cker v.2 © 2008-2014 @ PPK
[ Time : 0.024s | 15 Queries | GZIP : Off ]

Торрент трекер RUTOR.IN, Не можете зайти на rutor.org? Какой новый адрес рутор? Какое зеркало рутор? Не работает rutor.org и зеркала? Тогда наш торрент специально для вас. Rutor.in неофициальное зеркало rutor. В случае если у Вас заблокирован rutor или вдруг Вы не можете на него зайти, то Вы без труда сможете скачать бесплатно и без рекламы последние новинки кино, игр, сериалов и прочего у нас, на Rutor.in. Не нужно использовать прокси, чтобы зайти на рутор, достаточно воспользоваться нашим ресурсом. Все новые фильмы, игры, сериалы, книги и музыка за 2013 и 2014 годы через торрент бесплатно. Скачивайте фильмы в хорошем качестве, игры для пк, xbox, playstation без регистрации. У нас вы найдете новые Зарубежные сериалы и Русские сериалы 2013, 2014, 2015 годов. Оставайтесь с нами, качайте любимые фильмы, игры, сериалы, книги и музыку.
cron