img image001 image001 image001 image001 image001 image001 image001 image001 image001 image001 image001 image001 image001 image001 image001

Planets Sun Sun Sun
Статистика раздачи
Автор: Снежана | Размер: 5.53 ГБ | Добавлен: 24 июл 2013
Раздают: 22    Качают: 6
Скачать торрент
Скачать торрент
Описание торрента

СообщениеДобавлено: 24 июл 2013 

Что творят мужчины!
«Секс на вылет»


#77

Страна: Россия
Студия: Enjoy Movies
Жанр: комедия
Год выпуска: 2013
Продолжительность: 01:26:36

Перевод: Профессиональный (оригинальный) [лицензия]
Русские субтитры: нет
Режиссер: Сарик Андреасян
В ролях: Таир Мамедов, Константин Крюков, Роман Юнусов, Гавриил Гордеев, Равшана Куркова, Анна Хилькевич, Кристина Асмус, Наталия Медведева, Екатерина Скулкина, Даша Астафьева


Неприступные женщины, полмиллиона долларов и четверо героев которым предстоит принять участие в игре «Секс-лото», организованное экстравагантным миллионером. Суть игры — за пять дней соблазнить как можно больше женщин на морском курорте. Получив задания, великолепная четверка бросается в бой.
Но все цели совсем не простые — бабушка, жена олигарха, девственница, феминистка, сектантка — и приз получит только лучший. Каждый применит свой фирменный арсенал, и все будут близки к тому, чтобы получить заветный куш, записав новых жертв в список своих мужских побед. Но неожиданно в «дело секса» вмешается любовь.

Тип релиза: BDRip 1080p
Контейнер: MKV
Видео кодек: x264
Аудио кодек: AC3
Видео: AVC / High@L4.1 / 2 pass / 24,000 fps / 1916x864p / 8,5 Mbps / 0.214
Аудио: AC3 / 5.1 ch / 640 kbps / Русский original BD RUS
Субтитры: нет
Дополнительно: Сохранены оригинальные чаптеры как на Blu-ray
Рип от: Killbrain


Раздача от:










x264 [info]: frame I:1568 Avg QP:13.03 size:199042
x264 [info]: frame P:30200 Avg QP:15.66 size: 82580
x264 [info]: frame B:92946 Avg QP:17.57 size: 29155

Общее
Уникальный идентификатор : 210437833268730409645092434641990932768 (0x9E50DA3A5268538BBA390062D7635920)
Полное имя : F:Скачка торрентChto.tvorjat.muzhchiny.2013.BDRip1080p(Killbrain).mkv
Формат : Matroska
Версия формата : Version 4 / Version 2
Размер файла : 5,53 Гбайт
Продолжительность : 1 ч. 26 м.
Общий поток : 9134 Кбит/сек
Название фильма : Что творят мужчины (2013) by Killbrain
Дата кодирования : UTC 2013-03-22 17:02:17
Программа кодирования : mkvmerge v6.1.0 ('Old Devil') built on Mar 2 2013 14:32:37
Библиотека кодирования : libebml v1.3.0 + libmatroska v1.4.0

Видео
Идентификатор : 1
Формат : AVC
Формат/Информация : Advanced Video Codec
Профиль формата : High@L4.1
Параметр CABAC формата : Да
Параметр ReFrames формата : 4 кадра
Идентификатор кодека : V_MPEG4/ISO/AVC
Продолжительность : 1 ч. 26 м.
Битрейт : 8500 Кбит/сек
Ширина : 1916 пикселей
Высота : 864 пикселя
Соотношение сторон : 2,2:1
Режим частоты кадров : Постоянный
Частота кадров : 24,000 кадра/сек
Цветовое пространство : YUV
Субдискретизация насыщенности : 4:2:0
Битовая глубина : 8 бит
Тип развёртки : Прогрессивная
Бит/(Пиксели*Кадры) : 0.214
Размер потока : 5,03 Гбайт (91%)
Заголовок : Что творят мужчины (2013)
Библиотека кодирования : x264 core 128 r2216 198a7ea
Настройки программы : cabac=1 / ref=4 / deblock=1:-3:-3 / analyse=0x3:0x113 / me=umh / subme=10 / psy=1 / psy_rd=1.00:0.15 / mixed_ref=1 / me_range=16 / chroma_me=1 / trellis=2 / 8x8dct=1 / cqm=0 / deadzone=21,11 / fast_pskip=1 / chroma_qp_offset=-3 / threads=3 / lookahead_threads=1 / sliced_threads=0 / nr=0 / decimate=0 / interlaced=0 / bluray_compat=0 / constrained_intra=0 / bframes=6 / b_pyramid=2 / b_adapt=2 / b_bias=0 / direct=3 / weightb=1 / open_gop=0 / weightp=2 / keyint=240 / keyint_min=23 / scenecut=40 / intra_refresh=0 / rc_lookahead=60 / rc=2pass / mbtree=0 / bitrate=8500 / ratetol=1.0 / qcomp=0.65 / qpmin=0 / qpmax=69 / qpstep=4 / cplxblur=20.0 / qblur=0.5 / vbv_maxrate=40000 / vbv_bufsize=40000 / nal_hrd=none / ip_ratio=1.40 / pb_ratio=1.30 / aq=1:0.80
Язык : Russian
Default : Да
Forced : Нет

Аудио
Идентификатор : 2
Формат : AC-3
Формат/Информация : Audio Coding 3
Расширение режима : CM (complete main)
Параметр Endianness формата : Big
Идентификатор кодека : A_AC3
Продолжительность : 1 ч. 26 м.
Вид битрейта : Постоянный
Битрейт : 640 Кбит/сек
Каналы : 6 каналов
Расположение каналов : Front: L C R, Side: L R, LFE
Частота : 48,0 КГц
Битовая глубина : 16 бит
Метод сжатия : С потерями
Размер потока : 396 Мбайт (7%)
Заголовок : AC3 / 5.1 ch / 640 kbps / Русский оригинальный, BD RUS
Язык : Russian
Default : Да
Forced : Нет

Меню
00:00:00.000 : :Chapter 01
00:05:04.333 : :Chapter 02
00:10:08.833 : :Chapter 03
00:16:56.625 : :Chapter 04
00:23:02.833 : :Chapter 05
00:32:08.583 : :Chapter 06
00:38:21.125 : :Chapter 07
00:45:30.750 : :Chapter 08
00:55:24.916 : :Chapter 09
01:03:07.750 : :Chapter 10
01:08:40.000 : :Chapter 11
01:15:34.583 : :Chapter 12








   Похожие торренты   Торрент   Размер 
В этой теме нет новых непрочитанных сообщений. Что творят мужчины! (2013) BDRip от Youtracker | Лицензия

1772 | 52

1.46 ГБ

В этой теме нет новых непрочитанных сообщений. Что творят мужчины! (2013) BDRip от Youtracker | Лицензия

64 | 15

746.22 МБ

В этой теме нет новых непрочитанных сообщений. Что творят мужчины! (2013) DVD5 от Youtracker | сжатый | лицензия

2 | 3

4.37 ГБ

В этой теме нет новых непрочитанных сообщений. Что творят мужчины! (2013) DVD9 R5 от Youtracker

3 | 2

6.22 ГБ

В этой теме нет новых непрочитанных сообщений. Что творят мужчины! (2013) BDRip 1080p

17 | 8

7.25 ГБ

В этой теме нет новых непрочитанных сообщений. Что творят мужчины! (2013) BDRip 1080p

170 | 10

4.37 ГБ

В этой теме нет новых непрочитанных сообщений. Что творят мужчины! (2013) BDRip 720p | Лицензия

479 | 17

2.18 ГБ




Вы не можете начинать темы
Вы не можете отвечать на сообщения
Вы не можете редактировать свои сообщения
Вы не можете удалять свои сообщения
Вы не можете добавлять вложения

Перейти:  
Для Мосгорсуда, Роскомнадзора и рекламодателей: mosgorsud-torrent[собачка]yandex.ru
 Вход
ppkBB3cker v.2 © 2008-2014 @ PPK
[ Time : 0.058s | 16 Queries | GZIP : Off ]

Торрент трекер RUTOR.IN, Не можете зайти на rutor.org? Какой новый адрес рутор? Какое зеркало рутор? Не работает rutor.org и зеркала? Тогда наш торрент специально для вас. Rutor.in неофициальное зеркало rutor. В случае если у Вас заблокирован rutor или вдруг Вы не можете на него зайти, то Вы без труда сможете скачать бесплатно и без рекламы последние новинки кино, игр, сериалов и прочего у нас, на Rutor.in. Не нужно использовать прокси, чтобы зайти на рутор, достаточно воспользоваться нашим ресурсом. Все новые фильмы, игры, сериалы, книги и музыка за 2013 и 2014 годы через торрент бесплатно. Скачивайте фильмы в хорошем качестве, игры для пк, xbox, playstation без регистрации. У нас вы найдете новые Зарубежные сериалы и Русские сериалы 2013, 2014, 2015 годов. Оставайтесь с нами, качайте любимые фильмы, игры, сериалы, книги и музыку.