img image001 image001 image001 image001 image001 image001 image001 image001 image001 image001 image001 image001 image001 image001 image001

Planets Sun Sun Sun
Статистика раздачи
Автор: Снежана | Размер: 1.34 ГБ | Добавлен: 24 июл 2013
Раздают: 34    Качают: 9
Скачать торрент
Скачать торрент
Описание торрента

СообщениеДобавлено: 24 июл 2013 

#77
Страна: СССР
Производство: Ленфильм
Жанр: триллер
Год выпуска: 1962
Продолжительность: 01:13:33

Перевод: не требуется
Оригинальная аудиодорожка: русский
Cубтитры: нет

Режиссер: Григорий Никулин

В ролях: Владимир Чесноков, Отар Коберидзе, Лев Круглый, Людмила Абрамова, Владимир Высоцкий, Людмила Шагалова, Александр Барушной, Ефим Копелян, Сергей Голованов, Зана Занони, Ээве Киви, Рэм Лебедев, Нина Агапова, Константин Худяков, Алик Францев, Ирина Гурзо...

Описание:
Экипаж самолета, совершающего трансатлантический перелет, таинственным образом усыплен, и управляемому автопилотом самолету угрожает опасность. Пассажиры самолета — миссионер, солдат морской пехоты, адвокат, известная киноактриса с сыном, врач Рихард Гюнтер и другие — ни о чем не подозревают. Сможет ли опасность сплотить их?..





Исходник: DVD5 R5
Тип релиза: DVDRip
Контейнер: AVI

Видео: 720x528 (4:3), 25 fps, XviD ~ 2399 kbps avg, 0.252 bit/pixel
Аудио: 48 kHz, Dolby AC3 2.0, 192 kbps

Раздача от:
Общее
Полное имя : 713-j.prosit.posadku.1962.DVDRip_[Youtracker]_by_AVP Studio.avi
Формат : AVI
Формат/Информация : Audio Video Interleave
Размер файла : 1,34 Гбайт
Продолжительность : 1 ч. 13 м.
Общий поток : 2601 Кбит/сек
Программа кодирования : VirtualDubMod 1.5.10.3 | www.virtualdub-fr.org || (build 2550/release)
Библиотека кодирования : VirtualDubMod build 2550/release

Видео
Идентификатор : 0
Формат : MPEG-4 Visual
Профиль формата : Advanced Simple@L5
Параметр BVOP формата : 1
Параметр QPel формата : Нет
Параметр GMC формата : Без точки перехода
Параметр матрицы формата : Выборочная
Идентификатор кодека : XVID
Идентификатор кодека/Подсказка : XviD
Продолжительность : 1 ч. 13 м.
Битрейт : 2399 Кбит/сек
Ширина : 720 пикселей
Высота : 528 пикселей
Соотношение сторон : 4:3
Частота кадров : 25,000 кадров/сек
Цветовое пространство : YUV
Субдискретизация насыщенности : 4:2:0
Битовая глубина : 8 бит
Тип развёртки : Прогрессивная
Метод сжатия : С потерями
Бит/(Пиксели*Кадры) : 0.252
Размер потока : 1,23 Гбайт (92%)
Библиотека кодирования : XviD 65

Аудио
Идентификатор : 1
Формат : AC-3
Формат/Информация : Audio Coding 3
Расширение режима : CM (complete main)
Идентификатор кодека : 2000
Продолжительность : 1 ч. 13 м.
Вид битрейта : Постоянный
Битрейт : 192 Кбит/сек
Каналы : 2 канала
Расположение каналов : Front: L R
Частота : 48,0 КГц
Битовая глубина : 16 бит
Метод сжатия : С потерями
Размер потока : 101 Мбайт (7%)
Выравнивание : Разделение по промежуткам
Продолжительность промежутка : 40 мс. (1,00 видеокадр)
Время предзагрузки промежутка : 500 мс





   Похожие торренты   Торрент   Размер 
В этой теме нет новых непрочитанных сообщений. 713-й просит посадку (1962) DVDRip-AVC от Youtracker

12 | 6

1.38 ГБ

В этой теме нет новых непрочитанных сообщений. 713-й просит посадку (1962) DVDRip от Youtracker

14 | 5

744.59 МБ

В этой теме нет новых непрочитанных сообщений. 713-й просит посадку (1962) DVDRip-AVC от ExKinoRay

31 | 6

891.18 МБ

В этой теме нет новых непрочитанных сообщений. Гусарская Баллада (1962) DVDRip-AVC от Youtracker

17 | 7

1.46 ГБ

В этой теме нет новых непрочитанных сообщений. Гусарская Баллада (1962) DVDRip от Youtracker

24 | 8

746.13 МБ

В этой теме нет новых непрочитанных сообщений. Путь к причалу (1962) DVDRip от Youtracker

16 | 11

1.46 ГБ

В этой теме нет новых непрочитанных сообщений. Семь нянек (1962) DVDRip-AVC от Youtracker

37 | 5

1.09 ГБ




Вы не можете начинать темы
Вы не можете отвечать на сообщения
Вы не можете редактировать свои сообщения
Вы не можете удалять свои сообщения
Вы не можете добавлять вложения

Перейти:  
Для Мосгорсуда, Роскомнадзора и рекламодателей: mosgorsud-torrent[собачка]yandex.ru
 Вход
ppkBB3cker v.2 © 2008-2014 @ PPK
[ Time : 0.062s | 14 Queries | GZIP : Off ]

Торрент трекер RUTOR.IN, Не можете зайти на rutor.org? Какой новый адрес рутор? Какое зеркало рутор? Не работает rutor.org и зеркала? Тогда наш торрент специально для вас. Rutor.in неофициальное зеркало rutor. В случае если у Вас заблокирован rutor или вдруг Вы не можете на него зайти, то Вы без труда сможете скачать бесплатно и без рекламы последние новинки кино, игр, сериалов и прочего у нас, на Rutor.in. Не нужно использовать прокси, чтобы зайти на рутор, достаточно воспользоваться нашим ресурсом. Все новые фильмы, игры, сериалы, книги и музыка за 2013 и 2014 годы через торрент бесплатно. Скачивайте фильмы в хорошем качестве, игры для пк, xbox, playstation без регистрации. У нас вы найдете новые Зарубежные сериалы и Русские сериалы 2013, 2014, 2015 годов. Оставайтесь с нами, качайте любимые фильмы, игры, сериалы, книги и музыку.