img image001 image001 image001 image001 image001 image001 image001 image001 image001 image001 image001 image001 image001 image001 image001

Planets Sun Sun Sun
Статистика раздачи
Автор: Снежана | Размер: 1.45 ГБ | Добавлен: 24 июл 2013
Раздают: 102    Качают: 16
Скачать торрент
Скачать торрент
Описание торрента

СообщениеДобавлено: 24 июл 2013 

#77
Страна: СССР
Жанр: боевик, драма
Год выпуска: 1974

Продолжительность: 01:31:57


Перевод: Не требуется

Режиссер: Никита Михалков

В ролях: Юрий Богатырев (Шилов), Александр Кайдановский (Лемке), Александр Калягин (Ванюкин), Сергей Шакуров (Забелин), Александр Пороховщиков (Кунгаров), Анатолий Солоницын (Сарычев), Александр Адабашьян (помощник Есаула), Николай Засухин, Николай Пастухов, Никита Михалков (Есаул), Константин Райкин (Каюм), Михаил Кислов


Описание: Действие этого психологического «вестерна» происходит в 20-е годы в маленьком губернском городке на юге России. Гражданская война кончилась, но до полной победы большевиков еще далеко. Группа бандитов из бывших белых офицеров грабит поезд с золотом, на которое нужно было купить хлеб для голодающих, и пятеро друзей, бывших красных бойцов, вступают с ними в смертельную схватку.
Получается так, что подозрение в предательстве падает на одного из них (первая роль Богатырева в полнометражном кино), и, сбежав от товарищей, он один должен вернуть золото, чтобы доказать свою невиновность.



imdb.com: 7.30 (1 192)


Качество: DVDRip | sample
Контейнер: AVI
Исходник: DVD9 | Крупный план - полная реставрация
Видео: XviD, 704x528 (4:3), 1800 kbps, 25 fps, 0,194 bpp
Аудио: AC3 / 5.1 / 48 kHz / 448 kbps / 16 bit



General
Complete name : E:ФильмыSvoy_sredi_chuzhih_chuzhoj_sredi_svoih_DVDRip_1974_[youtracker].avi
Format : AVI
Format/Info : Audio Video Interleave
File size : 1.45 GiB
Duration : 1h 31mn
Overall bit rate : 2 258 Kbps
Writing application : VirtualDubMod 1.5.10.3 | www.virtualdub-fr.org || (build 2550/release)
Writing library : VirtualDubMod build 2550/release

Video
ID : 0
Format : MPEG-4 Visual
Format profile : Advanced Simple@L5
Format settings, BVOP : 2
Format settings, QPel : No
Format settings, GMC : No warppoints
Format settings, Matrix : Custom
Codec ID : XVID
Codec ID/Hint : XviD
Duration : 1h 31mn
Bit rate : 1 800 Kbps
Width : 704 pixels
Height : 528 pixels
Display aspect ratio : 4:3
Frame rate : 25.000 fps
Color space : YUV
Chroma subsampling : 4:2:0
Bit depth : 8 bits
Scan type : Progressive
Compression mode : Lossy
Bits/(Pixel*Frame) : 0.194
Stream size : 1.16 GiB (80%)
Writing library : XviD 65

Audio
ID : 1
Format : AC-3
Format/Info : Audio Coding 3
Mode extension : CM (complete main)
Codec ID : 2000
Duration : 1h 31mn
Bit rate mode : Constant
Bit rate : 448 Kbps
Channel(s) : 6 channels
Channel positions : Front: L C R, Side: L R, LFE
Sampling rate : 48.0 KHz
Bit depth : 16 bits
Compression mode : Lossy
Stream size : 295 MiB (20%)
Alignment : Split accross interleaves
Interleave, duration : 40 ms (1.00 video frame)
Interleave, preload duration : 500 ms




   Похожие торренты   Торрент   Размер 
В этой теме нет новых непрочитанных сообщений. Свой среди чужих, чужой среди своих (1974) DVDRip от MediaClub | КПК

41 | 6

417.97 МБ

В этой теме нет новых непрочитанных сообщений. Свой среди чужих, чужой среди своих (1974) DVDRip by FREEISLAND

81 | 7

2.44 ГБ

В этой теме нет новых непрочитанных сообщений. Свой среди чужих, чужой среди своих (1974) DVDRip-AVC

514 | 38

2.66 ГБ

В этой теме нет новых непрочитанных сообщений. Свой среди чужих, чужой среди своих (1974) DVDRip-AVC

645 | 34

1.45 ГБ

В этой теме нет новых непрочитанных сообщений. Свой среди чужих, чужой среди своих (1974) DVDRip

216 | 7

736.74 МБ

В этой теме нет новых непрочитанных сообщений. Свой среди чужих, чужой среди своих (1974) DVD5 by гаврила

48 | 10

3.68 ГБ

В этой теме нет новых непрочитанных сообщений. Свой среди чужих, чужой среди своих (1974) HDDVDRip 720p от ExKinoRay

450 | 49

3.59 ГБ




Вы не можете начинать темы
Вы не можете отвечать на сообщения
Вы не можете редактировать свои сообщения
Вы не можете удалять свои сообщения
Вы не можете добавлять вложения

Перейти:  
Для Мосгорсуда, Роскомнадзора и рекламодателей: mosgorsud-torrent[собачка]yandex.ru
 Вход
ppkBB3cker v.2 © 2008-2014 @ PPK
[ Time : 0.032s | 18 Queries | GZIP : Off ]

Торрент трекер RUTOR.IN, Не можете зайти на rutor.org? Какой новый адрес рутор? Какое зеркало рутор? Не работает rutor.org и зеркала? Тогда наш торрент специально для вас. Rutor.in неофициальное зеркало rutor. В случае если у Вас заблокирован rutor или вдруг Вы не можете на него зайти, то Вы без труда сможете скачать бесплатно и без рекламы последние новинки кино, игр, сериалов и прочего у нас, на Rutor.in. Не нужно использовать прокси, чтобы зайти на рутор, достаточно воспользоваться нашим ресурсом. Все новые фильмы, игры, сериалы, книги и музыка за 2013 и 2014 годы через торрент бесплатно. Скачивайте фильмы в хорошем качестве, игры для пк, xbox, playstation без регистрации. У нас вы найдете новые Зарубежные сериалы и Русские сериалы 2013, 2014, 2015 годов. Оставайтесь с нами, качайте любимые фильмы, игры, сериалы, книги и музыку.
cron