img image001 image001 image001 image001 image001 image001 image001 image001 image001 image001 image001 image001 image001 image001 image001

Planets Sun Sun Sun
Статистика раздачи
Автор: Снежана | Размер: 1.46 ГБ | Добавлен: 24 июл 2013
Раздают: 179    Качают: 10
Скачать торрент
Скачать торрент
Описание торрента

СообщениеДобавлено: 24 июл 2013 

#77
Страна: СССР
Производство: Студия Горького
Жанр: комедия, спорт
Год выпуска: 1963
Продолжительность: 01:27:13

Перевод: не требуется
Оригинальная аудиодорожка: русский
Cубтитры: нет

Режиссер: Вениамин Дорман

В ролях: Михаил Пуговкин , Лариса Лужина, Игорь Пушкарев, Владимир Трещалов , Лилиана Алешникова , Георгий Тусузов, Елена Понсова, Владимир Высоцкий , Алексей Бахарь, Николай Сморчков...

Описание:
Бывший руководитель животноводческого комплекса получает задание поднять авторитет спорта на селе. Смекнув, что добиться успеха можно очень быстро, он решает пригласить профессионалов выступить под вымышленными фамилиями на областной спартакиаде. Но по дороге команда знакомится с корреспонденткой газеты Людой Миловановой. Скандала теперь не избежать…





Исходник: DVD5 R5
Тип релиза: DVDRip
Контейнер: AVI

Видео: 688x528 (4:3), 25 fps, XviD ~ 2119 kbps avg, 0.233 bit/pixel
Аудио: 48 kHz, Dolby AC3 2.0, 256 kbps

Раздача от:
Общее
Полное имя : Shtrafnoj.udar.1963.DVDRip_[Youtracker]_by_AVP Studio.avi
Формат : AVI
Формат/Информация : Audio Video Interleave
Размер файла : 1,46 Гбайт
Продолжительность : 1 ч. 27 м.
Общий поток : 2384 Кбит/сек
Программа кодирования : VirtualDubMod 1.5.10.3 | www.virtualdub-fr.org || (build 2550/release)
Библиотека кодирования : VirtualDubMod build 2550/release

Видео
Идентификатор : 0
Формат : MPEG-4 Visual
Профиль формата : Advanced Simple@L5
Параметр BVOP формата : 1
Параметр QPel формата : Нет
Параметр GMC формата : Без точки перехода
Параметр матрицы формата : Выборочная
Идентификатор кодека : XVID
Идентификатор кодека/Подсказка : XviD
Продолжительность : 1 ч. 27 м.
Битрейт : 2119 Кбит/сек
Ширина : 688 пикселей
Высота : 528 пикселей
Соотношение сторон : 4:3
Частота кадров : 25,000 кадров/сек
Цветовое пространство : YUV
Субдискретизация насыщенности : 4:2:0
Битовая глубина : 8 бит
Тип развёртки : Прогрессивная
Метод сжатия : С потерями
Бит/(Пиксели*Кадры) : 0.233
Размер потока : 1,29 Гбайт (89%)
Библиотека кодирования : XviD 65

Аудио
Идентификатор : 1
Формат : AC-3
Формат/Информация : Audio Coding 3
Расширение режима : CM (complete main)
Идентификатор кодека : 2000
Продолжительность : 1 ч. 27 м.
Вид битрейта : Постоянный
Битрейт : 256 Кбит/сек
Каналы : 2 канала
Расположение каналов : Front: L R
Частота : 48,0 КГц
Битовая глубина : 16 бит
Метод сжатия : С потерями
Размер потока : 160 Мбайт (11%)
Выравнивание : Разделение по промежуткам
Продолжительность промежутка : 40 мс. (1,00 видеокадр)
Время предзагрузки промежутка : 500 мс.



http://rutor.org/torrent/216683/shtrafnoj-udar-1963-dvdrip
http://www.check2pic.ru/compare/28257/
Как обычно у конкурента, сперва кропает, а потом растягивает картинку до не существующих 720 пикселей



   Похожие торренты   Торрент   Размер 
В этой теме нет новых непрочитанных сообщений. Штрафной удар (1963) DVDRip-AVC от Youtracker

25 | 5

1.46 ГБ

В этой теме нет новых непрочитанных сообщений. Штрафной удар (1963) DVDRip от Youtracker

6 | 2

744.31 МБ

В этой теме нет новых непрочитанных сообщений. Штрафной удар (2009) SATRip

0 | 1

316.26 МБ

В этой теме нет новых непрочитанных сообщений. Коллеги (1963) DVDRip от Youtracker

51 | 7

1.46 ГБ

В этой теме нет новых непрочитанных сообщений. Коллеги (1963) DVDRip-AVC от Youtracker

13 | 8

1.46 ГБ

В этой теме нет новых непрочитанных сообщений. Коллеги (1963) DVDRip от Youtracker

9 | 3

744.75 МБ

В этой теме нет новых непрочитанных сообщений. Живые и Мёртвые (1963) DVDRip-AVC от Youtracker

261 | 17

2.18 ГБ




Вы не можете начинать темы
Вы не можете отвечать на сообщения
Вы не можете редактировать свои сообщения
Вы не можете удалять свои сообщения
Вы не можете добавлять вложения

Перейти:  
Для Мосгорсуда, Роскомнадзора и рекламодателей: mosgorsud-torrent[собачка]yandex.ru
 Вход
ppkBB3cker v.2 © 2008-2014 @ PPK
[ Time : 0.043s | 16 Queries | GZIP : Off ]

cron