img image001 image001 image001 image001 image001 image001 image001 image001 image001 image001 image001 image001 image001 image001 image001

Planets Sun Sun Sun
Статистика раздачи
Автор: Снежана | Размер: 744.97 МБ | Добавлен: 24 июл 2013
Раздают: 30    Качают: 8
Скачать торрент
Скачать торрент
Описание торрента

СообщениеДобавлено: 24 июл 2013 

#77
Страна: СССР
Производство: Рижская киностудия
Жанр: семейный
Год выпуска: 1964
Продолжительность: 01:20:16

Перевод: не требуется
Оригинальная аудиодорожка: русский
Cубтитры: нет

Режиссер: Александр Лейманис

В ролях: Витя Холмогоров, Юра Коржов, Айвар Галвиньш, Гунарс Цилинский (Цилинскис), Иван Кузнецов, Виктор Плют, Павел Шпрингфельд, Алексей Алексеев, Улдис Думпис, Рудольф Дамбран, Сергей Николаев, Валентина Старжинская, Гурген Тонунц, Иван Лапиков, Павел Кашлаков, Валдемар Зандберг, Степан Крылов, Любовь Малиновская, Олег Мокшанцев, Павел Первушин, Владимир Маренков...

Описание:
Повальные обыски и аресты начались с того самого момента, когда на месте аварии колчаковского поезда белогвардейцы нашли флажок с надписью «Армия трясогузки». Так называли себя беспризорники, юные участники гражданской войны в Латвии…





Исходник: DVD5 R5
Тип релиза: DVDRip
Контейнер: AVI

Видео: 624x480 (1,300:1), 25 fps, XviD ~ 1160 kbps avg, 0.155 bit/pixel
Аудио: 48 kHz, MP3 2.0, 128 kbps

Раздача от:
Общее
Полное имя : Armija.Trjasoguzki.1964.DVDRip-745_[Youtracker]_by_AVP Studio.avi
Формат : AVI
Формат/Информация : Audio Video Interleave
Размер файла : 745 Мбайт
Продолжительность : 1 ч. 20 м.
Общий поток : 1298 Кбит/сек
Программа кодирования : VirtualDubMod 1.5.10.3 | www.virtualdub-fr.org || (build 2550/release)
Библиотека кодирования : VirtualDubMod build 2550/release

Видео
Идентификатор : 0
Формат : MPEG-4 Visual
Профиль формата : Advanced Simple@L5
Параметр BVOP формата : 1
Параметр QPel формата : Нет
Параметр GMC формата : Без точки перехода
Параметр матрицы формата : Выборочная
Идентификатор кодека : XVID
Идентификатор кодека/Подсказка : XviD
Продолжительность : 1 ч. 20 м.
Битрейт : 1160 Кбит/сек
Ширина : 624 пикселя
Высота : 480 пикселей
Соотношение сторон : 1,300
Частота кадров : 25,000 кадров/сек
Цветовое пространство : YUV
Субдискретизация насыщенности : 4:2:0
Битовая глубина : 8 бит
Тип развёртки : Прогрессивная
Метод сжатия : С потерями
Бит/(Пиксели*Кадры) : 0.155
Размер потока : 666 Мбайт (89%)
Библиотека кодирования : XviD 65

Аудио
Идентификатор : 1
Формат : MPEG Audio
Версия формата : Version 1
Профиль формата : Layer 3
Идентификатор кодека : 55
Идентификатор кодека/Подсказка : MP3
Продолжительность : 1 ч. 20 м.
Вид битрейта : Постоянный
Битрейт : 128 Кбит/сек
Каналы : 2 канала
Частота : 48,0 КГц
Метод сжатия : С потерями
Размер потока : 73,5 Мбайт (10%)
Выравнивание : Соединение по промежуткам
Продолжительность промежутка : 40 мс. (1,00 видеокадр)
Время предзагрузки промежутка : 504 мс.
Библиотека кодирования : L3.99r
Настройки программы : -m s -V 4 -q 2 -lowpass 17 -b 128





   Похожие торренты   Торрент   Размер 
В этой теме нет новых непрочитанных сообщений. Армия трясогузки (1964) DVDRip от Youtracker

14 | 5

1.46 ГБ

В этой теме нет новых непрочитанных сообщений. Армия трясогузки (1964) DVDRip-AVC от Youtracker

114 | 15

1.46 ГБ

В этой теме нет новых непрочитанных сообщений. Армия Трясогузки снова в бою (1968) DVDRip от Youtracker

168 | 8

743.02 МБ

В этой теме нет новых непрочитанных сообщений. Армия Трясогузки снова в бою (1968) DVDRip-AVC от Youtracker

5 | 5

740.34 МБ

В этой теме нет новых непрочитанных сообщений. Армия "Трясогузки" (1964) DVD5

25 | 12

4.09 ГБ

В этой теме нет новых непрочитанных сообщений. Армия Трясогузки снова в бою (1968) DVDRip от Киномагия

11 | 12

1.37 ГБ

В этой теме нет новых непрочитанных сообщений. Армия "Трясогузки" снова в бою (1968) DVD5

0 | 5

4.36 ГБ




Вы не можете начинать темы
Вы не можете отвечать на сообщения
Вы не можете редактировать свои сообщения
Вы не можете удалять свои сообщения
Вы не можете добавлять вложения

Перейти:  
Для Мосгорсуда, Роскомнадзора и рекламодателей: mosgorsud-torrent[собачка]yandex.ru
 Вход
ppkBB3cker v.2 © 2008-2014 @ PPK
[ Time : 0.540s | 15 Queries | GZIP : Off ]

Торрент трекер RUTOR.IN, Не можете зайти на rutor.org? Какой новый адрес рутор? Какое зеркало рутор? Не работает rutor.org и зеркала? Тогда наш торрент специально для вас. Rutor.in неофициальное зеркало rutor. В случае если у Вас заблокирован rutor или вдруг Вы не можете на него зайти, то Вы без труда сможете скачать бесплатно и без рекламы последние новинки кино, игр, сериалов и прочего у нас, на Rutor.in. Не нужно использовать прокси, чтобы зайти на рутор, достаточно воспользоваться нашим ресурсом. Все новые фильмы, игры, сериалы, книги и музыка за 2013 и 2014 годы через торрент бесплатно. Скачивайте фильмы в хорошем качестве, игры для пк, xbox, playstation без регистрации. У нас вы найдете новые Зарубежные сериалы и Русские сериалы 2013, 2014, 2015 годов. Оставайтесь с нами, качайте любимые фильмы, игры, сериалы, книги и музыку.