img image001 image001 image001 image001 image001 image001 image001 image001 image001 image001 image001 image001 image001 image001 image001

Planets Sun Sun Sun
Статистика раздачи
Автор: Снежана | Размер: 2.07 ГБ | Добавлен: 24 июл 2013
Раздают: 9    Качают: 4
Скачать торрент
Скачать торрент
Описание торрента

СообщениеДобавлено: 24 июл 2013 

Королевство кривых зеркал


Оригинальное название: Королевство кривых зеркал
#77
Год выхода: 1963
Жанр: Сказка, экранизация



Режиссер: Александр Роу

В ролях: Ольга Юкина, Татьяна Юкина, Татьяна Барышева, Андрей Стапран, Иван Кузнецов, Тамара Носова, Анатолий Кубацкий, Аркадий Цинман, Андрей Файт, Лидия Вертинская, Георгий Милляр, Павел Павленко, Александр Хвыля, Валентин Брылеев, Вера Алтайская



О фильме:
«Королевство Кривых Зеркал» — фильм-сказка по одноимённой повести Виталия Губарева. Девочка Оля вечно не слушалась свою бабушку, капризничала, ленилась, и вот однажды... Благодаря старому волшебному зеркалу Оля встречается с собственным отражением - девочкой Яло. Обе они попадают в королевство кривых зеркал, где вообще нет обычных зеркал, потому что злые и не очень честные обитатели королевства желают казаться лучше, чем они есть на самом деле. Девочки, в конце концов, побеждают Зло, а для Оли, к тому же, путешествие в зазеркалье дало отличную возможность взглянуть на себя со стороны и исправиться…







Страна: СССР
Студия: Киностудия им. Горького
Продолжительность: 01:14:58
Язык: Русский



Качество: BDRip-AVC
Видео: MPEG-4 AVC, 3500 Кбит/с, 768x576, 25 fps
Звук: Русский (АС3, 6 ch, 448 Кбит/с)

Релиз:






Полное имя : Korolevstvo.krivyh.zerkal.1963.x264.BDRip.(AVC)-AVCurtain.mkv
Формат : Matroska
Версия формата : Version 2
Размер файла : 2,07 Гбайт
Продолжительность : 1 ч. 14 м.
Общий поток : 3950 Кбит/сек
Название фильма : AVCurtain
Дата кодирования : UTC 2012-08-19 22:39:21
Программа кодирования : mkvmerge v5.4.0 ('Piper') built on Mar 10 2012 13:34:39
Библиотека кодирования : libebml v1.2.3 + libmatroska v1.3.0

Видео
Идентификатор : 1
Формат : AVC
Формат/Информация : Advanced Video Codec
Профиль формата : High@L4.1
Параметр CABAC формата : Да
Параметр ReFrames формата : 8 кадров
Идентификатор кодека : V_MPEG4/ISO/AVC
Продолжительность : 1 ч. 14 м.
Битрейт : 3500 Кбит/сек
Ширина : 768 пикселей
Высота : 576 пикселей
Соотношение сторон : 4:3
Частота кадров : 25,000 кадров/сек
Цветовое пространство : YUV
Субдискретизация насыщенности : 4:2:0
Битовая глубина : 8 бит
Тип развёртки : Прогрессивная
Бит/(Пиксели*Кадры) : 0.316
Размер потока : 1,79 Гбайт (87%)
Библиотека кодирования : x264 core 119 r2106 07efeb4
Настройки программы : cabac=1 / ref=8 / deblock=1:-2:-2 / analyse=0x3:0x133 / me=umh / subme=11 / psy=1 / psy_rd=1.00:0.10 / mixed_ref=1 / me_range=48 / chroma_me=1 / trellis=2 / 8x8dct=1 / cqm=0 / deadzone=21,11 / fast_pskip=0 / chroma_qp_offset=-3 / threads=6 / sliced_threads=0 / nr=0 / decimate=0 / interlaced=0 / bluray_compat=0 / constrained_intra=0 / bframes=9 / b_pyramid=2 / b_adapt=2 / b_bias=0 / direct=3 / weightb=1 / open_gop=0 / weightp=2 / keyint=250 / keyint_min=25 / scenecut=40 / intra_refresh=0 / rc=2pass / mbtree=0 / bitrate=3500 / ratetol=1.0 / qcomp=0.60 / qpmin=10 / qpmax=51 / qpstep=4 / cplxblur=20.0 / qblur=0.5 / ip_ratio=1.40 / pb_ratio=1.30 / aq=1:0.80
Язык : Russian
Default : Да
Forced : Нет

Аудио
Идентификатор : 2
Формат : AC-3
Формат/Информация : Audio Coding 3
Расширение режима : CM (complete main)
Параметр Endianness формата : Big
Идентификатор кодека : A_AC3
Продолжительность : 1 ч. 14 м.
Вид битрейта : Постоянный
Битрейт : 448 Кбит/сек
Каналы : 6 каналов
Расположение каналов : Front: L C R, Side: L R, LFE
Частота : 48,0 КГц
Битовая глубина : 16 бит
Метод сжатия : С потерями
Задержка видео : 19 мс.
Размер потока : 240 Мбайт (11%)
Язык : Russian
Default : Да
Forced : Нет

Меню
00:00:00.000 : :Chapter 01
00:02:27.440 : :Chapter 02
00:08:42.760 : :Chapter 03
00:19:50.400 : :Chapter 04
00:28:44.160 : :Chapter 05
00:39:34.760 : :Chapter 06
00:49:47.400 : :Chapter 07
00:58:29.640 : :Chapter 08
01:10:31.560 : :Chapter 09
01:14:58.840 : :Chapter 10
x264 [info]: frame I:807 Avg QP:19.96 size: 83890
x264 [info]: frame P:25050 Avg QP:22.27 size: 32631
x264 [info]: frame B:86615 Avg QP:24.81 size: 12504



   Похожие торренты   Торрент   Размер 
В этой теме нет новых непрочитанных сообщений. Королевство кривых зеркал (1963) BDRip от HELLYWOOD

456 | 15

1.45 ГБ

В этой теме нет новых непрочитанных сообщений. Королевство кривых зеркал (1963) Blu-ray

9 | 7

15.5 ГБ

В этой теме нет новых непрочитанных сообщений. Королевство кривых зеркал (1963) DVD5

3 | 2

3.78 ГБ

В этой теме нет новых непрочитанных сообщений. Королевство кривых зеркал (1963) BDRip 1080p от NoLimits-Team & FireBit-Films

64 | 12

7.95 ГБ

В этой теме нет новых непрочитанных сообщений. Королевство кривых зеркал (1963) DVDRip от AndrewWhite

172 | 17

1.37 ГБ

В этой теме нет новых непрочитанных сообщений. Сказки Александра Роу: Королевство кривых зеркал; Морозко; Финист - Ясный сокол (1963-1975) DVD5

287 | 18

4.15 ГБ

В этой теме нет новых непрочитанных сообщений. Королевство Кривых Зеркал (2008) SATRip

77 | 13

1.46 ГБ




Вы не можете начинать темы
Вы не можете отвечать на сообщения
Вы не можете редактировать свои сообщения
Вы не можете удалять свои сообщения
Вы не можете добавлять вложения

Перейти:  
Для Мосгорсуда, Роскомнадзора и рекламодателей: mosgorsud-torrent[собачка]yandex.ru
 Вход
ppkBB3cker v.2 © 2008-2014 @ PPK
[ Time : 0.046s | 15 Queries | GZIP : Off ]

cron