img image001 image001 image001 image001 image001 image001 image001 image001 image001 image001 image001 image001 image001 image001 image001

Planets Sun Sun Sun
Статистика раздачи
Автор: Снежана | Размер: 743.02 МБ | Добавлен: 24 июл 2013
Раздают: 168    Качают: 8
Скачать торрент
Скачать торрент
Описание торрента

СообщениеДобавлено: 24 июл 2013 

#77
Страна: СССР
Производство: Рижская киностудия
Жанр: семейный
Год выпуска: 1968
Продолжительность: 01:21:08

Перевод: не требуется
Оригинальная аудиодорожка: русский
Cубтитры: нет

Режиссер: Александр Лейманис

В ролях: Гунарс Цилинский (Цилинскис), Айвар Галвиньш, Витя Холмогоров, Юра Коржов, Айварс Лейманис, Эгонс Майсакс, Виктор Гусев, Лена Кокоревич, Наташа Беликова, Иван Дмитриев, Иван Рыжов, Владимир Волчик, Байба Индриксоне, Борис Никифоров, Эдуард Павулс, Вера Титова, Александр Боярский, Владимир Васильев, Дмитрий Бокалов, Артур Димитерс, Людмила Тарасова...

Описание:
Действие фильма происходит на одной из узловых железнодорожных станций, находящейся в руках семеновцев. Сюда, в тыл врага, под видом богатого коммерсанта Загурского приезжает советский разведчик Платайс…





Исходник: DVD5 R5
Тип релиза: DVDRip
Контейнер: AVI

Видео: 688x304 (2,25:1), 25 fps, XviD ~ 1143 kbps avg, 0.219 bit/pixel
Аудио: 48 kHz, MP3 2.0, 128 kbps

Раздача от:
Общее
Полное имя : Armija.Trjasoguzki.snova.v.boju.1968.DVDRip_[Youtracker]_by_AVP Studio.avi
Формат : AVI
Формат/Информация : Audio Video Interleave
Размер файла : 743 Мбайт
Продолжительность : 1 ч. 21 м.
Общий поток : 1280 Кбит/сек
Программа кодирования : VirtualDubModRus 1.5.10.2 (build 2542/release)
Библиотека кодирования : VirtualDubMod build 2542/release

Видео
Идентификатор : 0
Формат : MPEG-4 Visual
Профиль формата : Advanced Simple@L5
Параметр BVOP формата : 1
Параметр QPel формата : Нет
Параметр GMC формата : Без точки перехода
Параметр матрицы формата : Выборочная
Идентификатор кодека : XVID
Идентификатор кодека/Подсказка : XviD
Продолжительность : 1 ч. 21 м.
Битрейт : 1143 Кбит/сек
Ширина : 688 пикселей
Высота : 304 пикселя
Соотношение сторон : 2,25:1
Частота кадров : 25,000 кадров/сек
Цветовое пространство : YUV
Субдискретизация насыщенности : 4:2:0
Битовая глубина : 8 бит
Тип развёртки : Прогрессивная
Метод сжатия : С потерями
Бит/(Пиксели*Кадры) : 0.219
Размер потока : 663 Мбайт (89%)
Библиотека кодирования : XviD 65

Аудио
Идентификатор : 1
Формат : MPEG Audio
Версия формата : Version 1
Профиль формата : Layer 3
Режим : Joint stereo
Расширение режима : MS Stereo
Идентификатор кодека : 55
Идентификатор кодека/Подсказка : MP3
Продолжительность : 1 ч. 21 м.
Вид битрейта : Постоянный
Битрейт : 128 Кбит/сек
Каналы : 2 канала
Частота : 48,0 КГц
Метод сжатия : С потерями
Размер потока : 74,3 Мбайт (10%)
Выравнивание : Соединение по промежуткам
Продолжительность промежутка : 40 мс. (1,00 видеокадр)
Время предзагрузки промежутка : 504 мс





   Похожие торренты   Торрент   Размер 
В этой теме нет новых непрочитанных сообщений. Армия Трясогузки снова в бою (1968) DVDRip-AVC от Youtracker

5 | 5

740.34 МБ

В этой теме нет новых непрочитанных сообщений. Армия Трясогузки снова в бою (1968) DVDRip от Киномагия

11 | 12

1.37 ГБ

В этой теме нет новых непрочитанных сообщений. Армия "Трясогузки" снова в бою (1968) DVD5

0 | 5

4.36 ГБ

В этой теме нет новых непрочитанных сообщений. Армия трясогузки (1964) DVDRip от Youtracker

30 | 8

744.97 МБ

В этой теме нет новых непрочитанных сообщений. Армия трясогузки (1964) DVDRip от Youtracker

14 | 5

1.46 ГБ

В этой теме нет новых непрочитанных сообщений. Армия трясогузки (1964) DVDRip-AVC от Youtracker

114 | 15

1.46 ГБ

В этой теме нет новых непрочитанных сообщений. Армия "Трясогузки" (1964) DVD5

25 | 12

4.09 ГБ




Вы не можете начинать темы
Вы не можете отвечать на сообщения
Вы не можете редактировать свои сообщения
Вы не можете удалять свои сообщения
Вы не можете добавлять вложения

Перейти:  
Для Мосгорсуда, Роскомнадзора и рекламодателей: mosgorsud-torrent[собачка]yandex.ru
 Вход
ppkBB3cker v.2 © 2008-2014 @ PPK
[ Time : 0.065s | 14 Queries | GZIP : Off ]

Торрент трекер RUTOR.IN, Не можете зайти на rutor.org? Какой новый адрес рутор? Какое зеркало рутор? Не работает rutor.org и зеркала? Тогда наш торрент специально для вас. Rutor.in неофициальное зеркало rutor. В случае если у Вас заблокирован rutor или вдруг Вы не можете на него зайти, то Вы без труда сможете скачать бесплатно и без рекламы последние новинки кино, игр, сериалов и прочего у нас, на Rutor.in. Не нужно использовать прокси, чтобы зайти на рутор, достаточно воспользоваться нашим ресурсом. Все новые фильмы, игры, сериалы, книги и музыка за 2013 и 2014 годы через торрент бесплатно. Скачивайте фильмы в хорошем качестве, игры для пк, xbox, playstation без регистрации. У нас вы найдете новые Зарубежные сериалы и Русские сериалы 2013, 2014, 2015 годов. Оставайтесь с нами, качайте любимые фильмы, игры, сериалы, книги и музыку.