img image001 image001 image001 image001 image001 image001 image001 image001 image001 image001 image001 image001 image001 image001 image001

Planets Sun Sun Sun
Статистика раздачи
Автор: Снежана | Размер: 1.46 ГБ | Добавлен: 24 июл 2013
Раздают: 5    Качают: 3
Скачать торрент
Скачать торрент
Описание торрента

СообщениеДобавлено: 24 июл 2013 

#77

Информация о фильме
Оригинальное название: Завет девяти пророков (Месть пророка)
Год выхода: 1993
Жанр: Приключения
Режиссер: Юнус Юсупов
В ролях: Борис Хмельницкий, Бахрам Акрамов, Анатолий Ромашин, Даврон Алиматов, Венера Азизова, Абу Ганем, Хасан Ганем, Муфид Ганем, Мусо Исоев, Иса Исса, Елена Катышева
О фильме: При раскопках древнего монастыря в Сирии обнаружили потайной ход, который ведет, как гласит легенда, к сокровищам, хранящимися в течение столетий под девятью магическими печатями. В них — завещание, указывающее потомкам единственный путь к сохранению мира и жизни на земле. Правительство Сирии и ЮНЕСКО направляют на раскопки международную экспедицию. Ну и, конечно, под видом востоковеда туда же отправляется злодей, замысливший похитить сокровища. Он еще не знает, что проклятье падет на голову того, кто прикоснется к богатствам. Пророки предупреждали, что только чистому духом человеку дано получить их наследие…

Страна: Таджикистан, Сирия
Студия: Таджикфильм, Ganemfilm
Продолжительность: 02:05:26
Перевод: Дублированный
Субтитры: Нет

Файл
Тип релиза: VHSRip
Видео: 640x480 (1.33:1), 25 fps, XviD ~1528 kbps avg, 0.20 bit/pixel
Аудио: 44.100 kHz, 2.0, ~128.00 kbps avg

Семпл
Общее
Полное имя : D:РаздачиЗавет девяти пророков VHSRip 1.45Gb.avi
Формат : AVI
Формат/Информация : Audio Video Interleave
Размер файла : 1,46 Гбайт
Продолжительность : 2 ч. 5 м.
Общий поток : 1663 Кбит/сек
Программа кодирования : VirtualDubMod 1.5.4.1 (build 2178/release)
Библиотека кодирования : VirtualDubMod build 2178/release

Видео
Идентификатор : 0
Формат : MPEG-4 Visual
Профиль формата : Advanced Simple@L5
Параметр BVOP формата : 1
Параметр QPel формата : Нет
Параметр GMC формата : Без точки перехода
Параметр матрицы формата : Выборочная
Идентификатор кодека : XVID
Идентификатор кодека/Подсказка : XviD
Продолжительность : 2 ч. 5 м.
Битрейт : 1528 Кбит/сек
Ширина : 640 пикселей
Высота : 480 пикселей
Соотношение сторон : 4:3
Частота кадров : 25,000 кадров/сек
Цветовое пространство : YUV
Субдискретизация насыщенности : 4:2:0
Битовая глубина : 8 бит
Тип развёртки : Прогрессивная
Метод сжатия : С потерями
Бит/(Пиксели*Кадры) : 0.199
Размер потока : 1,34 Гбайт (92%)
Библиотека кодирования : XviD 64

Аудио
Идентификатор : 1
Формат : MPEG Audio
Версия формата : Version 1
Профиль формата : Layer 3
Режим : Joint stereo
Расширение режима : MS Stereo
Идентификатор кодека : 55
Идентификатор кодека/Подсказка : MP3
Продолжительность : 2 ч. 5 м.
Вид битрейта : Постоянный
Битрейт : 128 Кбит/сек
Каналы : 2 канала
Частота : 44,1 КГц
Метод сжатия : С потерями
Размер потока : 115 Мбайт (8%)
Выравнивание : Разделение по промежуткам
Продолжительность промежутка : 80 мс. (2,00 видеокадра)
Время предзагрузки промежутка : 500 мс.
Библиотека кодирования : LAME3.98r
Настройки программы : -m j -V 4 -q 2 -lowpass 17 -b 128





   Похожие торренты   Торрент   Размер 
В этой теме нет новых непрочитанных сообщений. Библия - Ветхий Завет и Новый Завет (2008) MP3

1294 | 194

2.53 ГБ

В этой теме нет новых непрочитанных сообщений. Формула 1. Сезон 1993. Все этапы (1993) VHSRip

3 | 15

20.71 ГБ

В этой теме нет новых непрочитанных сообщений. Обнаженная месть / Naked Vengeance (1985) VHSRip | P2

623 | 53

1.38 ГБ

В этой теме нет новых непрочитанных сообщений. Горькая месть / Bitter Vengeance (1994) VHSRip от torrentfilm | А

109 | 8

752.1 МБ

В этой теме нет новых непрочитанных сообщений. Глас Пророка - Глас Пророка (2015) MP3

234 | 4

85.8 МБ

В этой теме нет новых непрочитанных сообщений. Человек-молния 2: Месть надувателя / The Flash 2: Revenge of The Trickster (1991) VHSRip

11 | 3

699.21 МБ

В этой теме нет новых непрочитанных сообщений. Галесник Марк - Пророков 48 (2013) MP3

14 | 0

520.8 МБ




Вы не можете начинать темы
Вы не можете отвечать на сообщения
Вы не можете редактировать свои сообщения
Вы не можете удалять свои сообщения
Вы не можете добавлять вложения

Перейти:  
Для Мосгорсуда, Роскомнадзора и рекламодателей: mosgorsud-torrent[собачка]yandex.ru
 Вход
ppkBB3cker v.2 © 2008-2014 @ PPK
[ Time : 0.540s | 14 Queries | GZIP : Off ]

Торрент трекер RUTOR.IN, Не можете зайти на rutor.org? Какой новый адрес рутор? Какое зеркало рутор? Не работает rutor.org и зеркала? Тогда наш торрент специально для вас. Rutor.in неофициальное зеркало rutor. В случае если у Вас заблокирован rutor или вдруг Вы не можете на него зайти, то Вы без труда сможете скачать бесплатно и без рекламы последние новинки кино, игр, сериалов и прочего у нас, на Rutor.in. Не нужно использовать прокси, чтобы зайти на рутор, достаточно воспользоваться нашим ресурсом. Все новые фильмы, игры, сериалы, книги и музыка за 2013 и 2014 годы через торрент бесплатно. Скачивайте фильмы в хорошем качестве, игры для пк, xbox, playstation без регистрации. У нас вы найдете новые Зарубежные сериалы и Русские сериалы 2013, 2014, 2015 годов. Оставайтесь с нами, качайте любимые фильмы, игры, сериалы, книги и музыку.