img image001 image001 image001 image001 image001 image001 image001 image001 image001 image001 image001 image001 image001 image001 image001

Planets Sun Sun Sun
Статистика раздачи
Автор: Снежана | Размер: 1.45 ГБ | Добавлен: 24 июл 2013
Раздают: 70    Качают: 16
Скачать торрент
Скачать торрент
Описание торрента

СообщениеДобавлено: 24 июл 2013 

#77
Страна: СССР
Производство: Мосфильм
Жанр: драма, военный
Год выпуска: 1963
Продолжительность: 1:33:37+01:34:52

Перевод: не требуется
Оригинальная аудиодорожка: русский
Cубтитры: нет

Режиссер: Александр Столпер

В ролях: Кирилл Лавров, Анатолий Папанов, Олег Ефремов, Людмила Крылова, Олег Табаков, Виктор Авдюшко, Борис Чирков, Евгений Самойлов, Евгений Шутов, Михаил Глузский, Михаил Ульянов, Любовь Соколова...

Описание:
Журналиста Ивана Синцова известие о вероломном нападении нацистской Германии застает во время южного отпуска. Как фронтовой корреспондент он становится свидетелем тяжелых событий первых месяцев войны — многочисленных отступлений 1941 года…





Исходник: DVD9 R5
Тип релиза: DVDRip
Контейнер: AVI

Видео: 672x368 (16:9), 25 fps, XviD ~ 965 kbps avg, 0.156 bit/pixel
Аудио: 48 kHz, MP3 2.0, 128 kbps

Раздача от:
Общее
Полное имя : Zhivye.i.mertvye.1963.DVDRip-1,46_[Youtracker]_by_AVP Studio�1.avi
Формат : AVI
Формат/Информация : Audio Video Interleave
Размер файла : 741 Мбайт
Продолжительность : 1 ч. 33 м.
Общий поток : 1103 Кбит/сек
Программа кодирования : VirtualDubMod 1.5.10.3 | www.virtualdub-fr.org || (build 2550/release)
Библиотека кодирования : VirtualDubMod build 2550/release

Видео
Идентификатор : 0
Формат : MPEG-4 Visual
Профиль формата : Advanced Simple@L5
Параметр BVOP формата : 1
Параметр QPel формата : Нет
Параметр GMC формата : Без точки перехода
Параметр матрицы формата : Выборочная
Идентификатор кодека : XVID
Идентификатор кодека/Подсказка : XviD
Продолжительность : 1 ч. 33 м.
Битрейт : 965 Кбит/сек
Ширина : 672 пикселя
Высота : 368 пикселей
Соотношение сторон : 16:9
Частота кадров : 25,000 кадров/сек
Цветовое пространство : YUV
Субдискретизация насыщенности : 4:2:0
Битовая глубина : 8 бит
Тип развёртки : Прогрессивная
Метод сжатия : С потерями
Бит/(Пиксели*Кадры) : 0.156
Размер потока : 648 Мбайт (88%)
Библиотека кодирования : XviD 65

Аудио
Идентификатор : 1
Формат : MPEG Audio
Версия формата : Version 1
Профиль формата : Layer 3
Идентификатор кодека : 55
Идентификатор кодека/Подсказка : MP3
Продолжительность : 1 ч. 33 м.
Вид битрейта : Постоянный
Битрейт : 128 Кбит/сек
Каналы : 2 канала
Частота : 48,0 КГц
Метод сжатия : С потерями
Размер потока : 86,0 Мбайт (12%)
Выравнивание : Соединение по промежуткам
Продолжительность промежутка : 40 мс. (1,00 видеокадр)
Время предзагрузки промежутка : 504 мс.
Библиотека кодирования : L3.99r
Настройки программы : -m s -V 4 -q 2 -lowpass 17 -b 128





   Похожие торренты   Торрент   Размер 
В этой теме нет новых непрочитанных сообщений. Живые и Мёртвые (1963) DVDRip от Youtracker

13 | 6

2.18 ГБ

В этой теме нет новых непрочитанных сообщений. Живые и Мёртвые (1963) DVDRip-AVC от Youtracker

261 | 17

2.18 ГБ

В этой теме нет новых непрочитанных сообщений. Живые и Мертвые / The Living and the Dead (2006) DVDRip от KinoZalSat

0 | 4

1.36 ГБ

В этой теме нет новых непрочитанных сообщений. Константин Симонов - Живые и мертвые. Книга 1-3 (2012) MP3

63 | 8

3.39 ГБ

В этой теме нет новых непрочитанных сообщений. Крематорий - Живые и мертвые [Remaster] (1988) FLAC

6 | 2

276.07 МБ

В этой теме нет новых непрочитанных сообщений. Мертвые Дельфины / Живые Дельфины - Дискография [6 релизов] (2003-2011) FLAC, MP3, APE

689 | 92

1.06 ГБ

В этой теме нет новых непрочитанных сообщений. The Elder Scrolls IV: Oblivion - "Живые и мертвые" (2010) PC

104 | 16

1.75 ГБ




Вы не можете начинать темы
Вы не можете отвечать на сообщения
Вы не можете редактировать свои сообщения
Вы не можете удалять свои сообщения
Вы не можете добавлять вложения

Перейти:  
Для Мосгорсуда, Роскомнадзора и рекламодателей: mosgorsud-torrent[собачка]yandex.ru
 Вход
ppkBB3cker v.2 © 2008-2014 @ PPK
[ Time : 91.286s | 15 Queries | GZIP : Off ]
CGP output time : 0.020s | 7 Queries | GZIP : Off

Торрент трекер RUTOR.IN, Не можете зайти на rutor.org? Какой новый адрес рутор? Какое зеркало рутор? Не работает rutor.org и зеркала? Тогда наш торрент специально для вас. Rutor.in неофициальное зеркало rutor. В случае если у Вас заблокирован rutor или вдруг Вы не можете на него зайти, то Вы без труда сможете скачать бесплатно и без рекламы последние новинки кино, игр, сериалов и прочего у нас, на Rutor.in. Не нужно использовать прокси, чтобы зайти на рутор, достаточно воспользоваться нашим ресурсом. Все новые фильмы, игры, сериалы, книги и музыка за 2013 и 2014 годы через торрент бесплатно. Скачивайте фильмы в хорошем качестве, игры для пк, xbox, playstation без регистрации. У нас вы найдете новые Зарубежные сериалы и Русские сериалы 2013, 2014, 2015 годов. Оставайтесь с нами, качайте любимые фильмы, игры, сериалы, книги и музыку.