img image001 image001 image001 image001 image001 image001 image001 image001 image001 image001 image001 image001 image001 image001 image001

Planets Sun Sun Sun
Статистика раздачи
Автор: Снежана | Размер: 1.46 ГБ | Добавлен: 24 июл 2013
Раздают: 416    Качают: 33
Скачать торрент
Скачать торрент
Описание торрента

СообщениеДобавлено: 24 июл 2013 

«13-ый фильм Алексея Балабанова»


#77

Жанр: драма, криминал
Год выпуска: 2010
Продолжительность: 01:24:03

Режиссёр: Алексей Балабанов

В ролях: Михаил Скрябин, Юрий Матвеев, Александр Мосин, Аида Тумутова, Анна Коротаева, Вячеслав Павлють, Алина Политова, Варвара Белокурова, Вячеслав Тельнов, Петр Семак...

Описание: Время и место действия: Санкт-Петербург, середина 90-х годов ХХ столетия, главный герой — майор в отставке, работает в кочегарке, и в свободное время на старенькой печатной машинке пишет рассказ. Однако затворника-кочегара часто посещают самые разные гости…





Исходник: DVD5 R5
Качество: DVDRip
Формат: AVI

Видео: 720x384 (1.85:1), 25.000 fps, XviD ~ 2279 kbps avg, 0.330 bit/pixel
Аудио: 48 kHz, AC3 2 ch, 192 kbps, русский

Раздача от:
Общее
Полное имя : Kochegar.2010.O.DVDRip_[Youtracker]_by_avproh.avi
Формат : AVI
Формат/Информация : Audio Video Interleave
Размер файла : 1,46 Гбайт
Продолжительность : 1 ч. 24 м.
Общий поток : 2481 Кбит/сек
Программа кодирования : VirtualDubMod 1.5.10.3 | www.virtualdub-fr.org || (build 2550/release)
Библиотека кодирования : VirtualDubMod build 2550/release

Видео
Идентификатор : 0
Формат : MPEG-4 Visual
Профиль формата : Advanced Simple@L5
Параметр BVOP формата : 1
Параметр QPel формата : Нет
Параметр GMC формата : Без точки перехода
Параметр матрицы формата : Выборочная
Идентификатор кодека : XVID
Идентификатор кодека/Подсказка : XviD
Продолжительность : 1 ч. 24 м.
Битрейт : 2279 Кбит/сек
Ширина : 720 пикселей
Высота : 384 пикселя
Соотношение сторон : 1,85:1
Частота кадров : 25,000 кадров/сек
Цветовое пространство : YUV
Субдискретизация насыщенности : 4:2:0
Битовая глубина : 8 бит
Тип развёртки : Прогрессивная
Метод сжатия : С потерями
Бит/(Пиксели*Кадры) : 0.330
Размер потока : 1,34 Гбайт (92%)
Библиотека кодирования : XviD 65

Аудио
Идентификатор : 1
Формат : AC-3
Формат/Информация : Audio Coding 3
Расширение режима : CM (complete main)
Параметр Endianness формата : Big
Идентификатор кодека : 2000
Продолжительность : 1 ч. 23 м.
Вид битрейта : Постоянный
Битрейт : 192 Кбит/сек
Каналы : 2 канала
Расположение каналов : Front: L R
Частота : 48,0 КГц
Битовая глубина : 16 бит
Метод сжатия : С потерями
Размер потока : 115 Мбайт (8%)
Выравнивание : Разделение по промежуткам
Продолжительность промежутка : 40 мс. (1,00 видеокадр)
Время предзагрузки промежутка : 500 мс.



http://rutor.org/torrent/81131/

Немного истории: фильм Балабанова "Кочегар" вышел в 2010 году и в ноябре того же года был выпущен «Союз-Видео» в виде диска DVD5 в продажу. Диск включал в себя две русские звуковые дорожки DD 5.1 448 кбпс и DD 2.0 192 кбпс (DD 5.1 448 кбпс вошла в релиз конкурента). Диск, из которого делался данный рип содержит тот же фильм, выпущен компанией «Союз-Видео» в прошлом году, но в нем всего одна русская звуковая дорожка - DD 2.0 192 кбпс. Уважаемая компания просто исправила свою ошибку, поскольку многоканальная дорожка со всех точек зрения отвратительного качества и изготовлена даже не из стереодорожки, а из моно. Это скрин полной дорожки: http://i51.fastpic.ru/big/2013/0410/e5/bc23ae34a1178cd0e286807e9ad046e5.jpg. Специалист вам скажет, как должна выглядеть лицензионная многоканальная звуковая дорожка, это не тот случай. Теперь, если растянуть эту дорогу по времени, то получим следующий снимок: http://i52.fastpic.ru/big/2013/0410/80/61231389089d730d7f07dbd34a8d2880.jpg, из которого видно, что первые три канала абсолютно идентичны (фронт, передние левый и правый), LFE - равен нулю, а задние каналы тоже идентичны между собой и хоть немного и отличаются от передних, то совсем незначительно (это достигается небольшим сдвигом для получения эха и применением любого фильтра). А вот скрин дорожки, представленной в данном релизе: http://i51.fastpic.ru/big/2013/0410/31/6d5ef51edd5c07bc7a60713f148fb431.jpg, по которому и без растягивания видно, что это нормальная звуковая стереодорожка.

http://screenshotcomparison.com/comparison/18203 - это сравнение видео и по нему видно, что у конкурента обрезана часть экрана, то что неверный аспект, это результат сравнения в одном (большем) разрешении.

Торрент перезалит 11 апреля 2013 года, удален небольшой рассинхрон аудио и видеодорожек, приношу свои извинения



   Похожие торренты   Торрент   Размер 
В этой теме нет новых непрочитанных сообщений. Кочегар (2010) DVDRip-AVC от Youtracker | лицензия

28 | 7

1.46 ГБ

В этой теме нет новых непрочитанных сообщений. Кочегар (2010) DVD5 R5 от Youtracker | лицензия

15 | 6

4.23 ГБ

В этой теме нет новых непрочитанных сообщений. Кочегар (2010) DVDRip

193 | 4

744.56 МБ

В этой теме нет новых непрочитанных сообщений. Кочегар (2010) DVDRip от bittracker

87 | 5

747.51 МБ

В этой теме нет новых непрочитанных сообщений. Кочегар (2010) DVD5

12 | 3

4.2 ГБ

В этой теме нет новых непрочитанных сообщений. Лиговка [01-12 из 12] (2010) DVDRip-AVC от Youtracker | Лицензия

78 | 25

6.64 ГБ

В этой теме нет новых непрочитанных сообщений. Великая война [01-18 из 18] (2010-2012) DVDRip от Youtracker | лицензия

396 | 101

14.05 ГБ




Вы не можете начинать темы
Вы не можете отвечать на сообщения
Вы не можете редактировать свои сообщения
Вы не можете удалять свои сообщения
Вы не можете добавлять вложения

Перейти:  
Для Мосгорсуда, Роскомнадзора и рекламодателей: mosgorsud-torrent[собачка]yandex.ru
 Вход
ppkBB3cker v.2 © 2008-2014 @ PPK
[ Time : 0.061s | 16 Queries | GZIP : Off ]

cron