img image001 image001 image001 image001 image001 image001 image001 image001 image001 image001 image001 image001 image001 image001 image001

Planets Sun Sun Sun
Статистика раздачи
Автор: Снежана | Размер: 1.46 ГБ | Добавлен: 24 июл 2013
Раздают: 17    Качают: 7
Скачать торрент
Скачать торрент
Описание торрента

СообщениеДобавлено: 24 июл 2013 

#77
Страна: СССР
Производство: Студия Горького, Зодиак
Жанр: мелодрама
Год выпуска: 1991
Продолжительность: 01:44:56

Перевод: не требуется
Оригинальная аудиодорожка: русский
Cубтитры: нет

Режиссер: Валерий Тодоровский

В ролях: Евгений Миронов, Наталья Петрова, Дмитрий Марьянов, Татьяна Скороходова, Наталья Вилькина, Вия Артмане, Лев Дуров, Раиса Рязанова, Инна (Фаина) Слободская, Анатолий Поползухин...

Описание:
Два друга-студента на вечеринке знакомятся с девушками. У первой пары есть и роскошная квартира для встреч, и видимое взаимопонимание, которое приводит к браку. Любовь основных героев осложнена не только разницей характеров и семейных укладов, но и вынужденным отъездом девушки в Израиль…





Исходник: DVD9 R5
Тип релиза: DVDRip
Контейнер: AVI

Видео: 704x512 (1,375:1), 25 fps, XviD ~ 1529 kbps avg, 0.170 bit/pixel
Аудио: 48 kHz, Dolby AC3 5.1, 448 kbps

Раздача от:
Общее
Полное имя : Ljubov'.1991.DVDRip_[Youtracker]_by_AVP Studio.avi
Формат : AVI
Формат/Информация : Audio Video Interleave
Размер файла : 1,46 Гбайт
Продолжительность : 1 ч. 44 м.
Общий поток : 1987 Кбит/сек
Программа кодирования : VirtualDubMod 1.5.10.3 | www.virtualdub-fr.org || (build 2550/release)
Библиотека кодирования : VirtualDubMod build 2550/release

Видео
Идентификатор : 0
Формат : MPEG-4 Visual
Профиль формата : Advanced Simple@L5
Параметр BVOP формата : 1
Параметр QPel формата : Нет
Параметр GMC формата : Без точки перехода
Параметр матрицы формата : Выборочная
Идентификатор кодека : XVID
Идентификатор кодека/Подсказка : XviD
Продолжительность : 1 ч. 44 м.
Битрейт : 1529 Кбит/сек
Ширина : 704 пикселя
Высота : 512 пикселей
Соотношение сторон : 1,375
Частота кадров : 25,000 кадров/сек
Цветовое пространство : YUV
Субдискретизация насыщенности : 4:2:0
Битовая глубина : 8 бит
Тип развёртки : Прогрессивная
Метод сжатия : С потерями
Бит/(Пиксели*Кадры) : 0.170
Размер потока : 1,12 Гбайт (77%)
Библиотека кодирования : XviD 65

Аудио
Идентификатор : 1
Формат : AC-3
Формат/Информация : Audio Coding 3
Расширение режима : CM (complete main)
Идентификатор кодека : 2000
Продолжительность : 1 ч. 44 м.
Вид битрейта : Постоянный
Битрейт : 448 Кбит/сек
Каналы : 6 каналов
Расположение каналов : Front: L C R, Side: L R, LFE
Частота : 48,0 КГц
Битовая глубина : 16 бит
Метод сжатия : С потерями
Размер потока : 336 Мбайт (23%)
Выравнивание : Разделение по промежуткам
Продолжительность промежутка : 40 мс. (1,00 видеокадр)
Время предзагрузки промежутка : 500 мс



Приз Европейской ассоциации художественного кино,
Приз экуменистического жюри,
Приз зрителей на Международном Каннском фестивале (Франция, 1992г.);
«Приз Мира» - Московского кинофестиваля в Чикаго, США (1992г.);
Приз режиссёру «За лучшую работу с актерами» Кинофестиваля «Созвездие» в г. Смоленск.

За работу в фильме актёр Евгений Миронов награждён:

Премией за лучшую роль на Кинофестивале «Созвездие-92»;
Премией за лучшую роль на Кинофестивале «Кинотавр-92»;
«Гран-при» и специальным призом кинокритики на Международном кинофестивале «Звезды завтрашнего дня» в Женеве;
Признан критиками лучшим актером 1992 года.

За работу в фильме актриса Наталья Петрова награждена:

Призом Кинофестиваля в Монпелье (Франция) в номинации «Лучшая женская роль» (1992г.)




   Похожие торренты   Торрент   Размер 
В этой теме нет новых непрочитанных сообщений. Любовь (1991) DVDRip от Youtracker

6 | 3

744.25 МБ

В этой теме нет новых непрочитанных сообщений. Любовь (1991) DVDRip-AVC от Youtracker

20 | 2

1.46 ГБ

В этой теме нет новых непрочитанных сообщений. Любовь (1991) DVDRip-AVC от ExKinoRay

72 | 18

1.8 ГБ

В этой теме нет новых непрочитанных сообщений. Любовь на острове смерти (1991) DVDRip

144 | 22

1.37 ГБ

В этой теме нет новых непрочитанных сообщений. Любовь во время истерии / Solo con tu pareja (1991) DVDRip | P

68 | 7

1.37 ГБ

В этой теме нет новых непрочитанных сообщений. Люми (1991) DVDRip от Youtracker

7 | 2

744.49 МБ

В этой теме нет новых непрочитанных сообщений. Обязательства / The Commitments (1991) DVDRip от Youtracker

0 | 1

1.46 ГБ




Вы не можете начинать темы
Вы не можете отвечать на сообщения
Вы не можете редактировать свои сообщения
Вы не можете удалять свои сообщения
Вы не можете добавлять вложения

Перейти:  
Для Мосгорсуда, Роскомнадзора и рекламодателей: mosgorsud-torrent[собачка]yandex.ru
 Вход
ppkBB3cker v.2 © 2008-2014 @ PPK
[ Time : 0.064s | 15 Queries | GZIP : On ]

Торрент трекер RUTOR.IN, Не можете зайти на rutor.org? Какой новый адрес рутор? Какое зеркало рутор? Не работает rutor.org и зеркала? Тогда наш торрент специально для вас. Rutor.in неофициальное зеркало rutor. В случае если у Вас заблокирован rutor или вдруг Вы не можете на него зайти, то Вы без труда сможете скачать бесплатно и без рекламы последние новинки кино, игр, сериалов и прочего у нас, на Rutor.in. Не нужно использовать прокси, чтобы зайти на рутор, достаточно воспользоваться нашим ресурсом. Все новые фильмы, игры, сериалы, книги и музыка за 2013 и 2014 годы через торрент бесплатно. Скачивайте фильмы в хорошем качестве, игры для пк, xbox, playstation без регистрации. У нас вы найдете новые Зарубежные сериалы и Русские сериалы 2013, 2014, 2015 годов. Оставайтесь с нами, качайте любимые фильмы, игры, сериалы, книги и музыку.