img image001 image001 image001 image001 image001 image001 image001 image001 image001 image001 image001 image001 image001 image001 image001

Planets Sun Sun Sun
Статистика раздачи
Автор: Снежана | Размер: 1.09 ГБ | Добавлен: 24 июл 2013
Раздают: 229    Качают: 7
Скачать торрент
Скачать торрент
Описание торрента

СообщениеДобавлено: 24 июл 2013 

#77
Страна: СССР
Производство: Мосфильм
Жанр: драма, военный
Год выпуска: 1963
Продолжительность: 01:14:10

Перевод: не требуется
Оригинальная аудиодорожка: русский
Cубтитры: нет

Режиссер: Василий Ордынский

В ролях: Надежда Федосова, Петр Любешкин, Лилия Дзюба, Борис Юрченко, Юрий Горобец, Николай Граббе, Роман Хомятов, Виктор Филиппов, Валерий Погорельцев, Юрий Смирнов, Борис Буткеев, Саша Коробов, Станислав Соколов, Григорий Михайлов, Георгий Мартынюк...

Описание:
Суровая осень 1941 года. Немцы на подступе к Москве. Несколько зенитных батарей, охранявших небо столицы, были срочно брошены против немецких танков. На развилке дорог, возле домика, где живет женщина с тремя детьми, занял позицию орудийный расчет…





Исходник: DVD5 R5
Тип релиза: DVDRip
Контейнер: AVI

Видео: 704x512 (1,375:1), 25 fps, XviD ~ 1910 kbps avg, 0.212 bit/pixel
Аудио: 48 kHz, Dolby AC3 2.0, 192 kbps

Раздача от:
Общее
Полное имя : U.tvoego.poroga.1963.DVDRip_[Youtracker]_by_AVP Studio.avi
Формат : AVI
Формат/Информация : Audio Video Interleave
Размер файла : 1,09 Гбайт
Продолжительность : 1 ч. 14 м.
Общий поток : 2112 Кбит/сек
Программа кодирования : VirtualDubMod 1.5.10.3 | www.virtualdub-fr.org || (build 2550/release)
Библиотека кодирования : VirtualDubMod build 2550/release

Видео
Идентификатор : 0
Формат : MPEG-4 Visual
Профиль формата : Advanced Simple@L5
Параметр BVOP формата : 1
Параметр QPel формата : Нет
Параметр GMC формата : Без точки перехода
Параметр матрицы формата : Выборочная
Идентификатор кодека : XVID
Идентификатор кодека/Подсказка : XviD
Продолжительность : 1 ч. 14 м.
Битрейт : 1910 Кбит/сек
Ширина : 704 пикселя
Высота : 512 пикселей
Соотношение сторон : 1,375
Частота кадров : 25,000 кадров/сек
Цветовое пространство : YUV
Субдискретизация насыщенности : 4:2:0
Битовая глубина : 8 бит
Тип развёртки : Прогрессивная
Метод сжатия : С потерями
Бит/(Пиксели*Кадры) : 0.212
Размер потока : 1013 Мбайт (90%)
Библиотека кодирования : XviD 65

Аудио
Идентификатор : 1
Формат : AC-3
Формат/Информация : Audio Coding 3
Расширение режима : CM (complete main)
Идентификатор кодека : 2000
Продолжительность : 1 ч. 14 м.
Вид битрейта : Постоянный
Битрейт : 192 Кбит/сек
Каналы : 2 канала
Расположение каналов : Front: L R
Частота : 48,0 КГц
Битовая глубина : 16 бит
Метод сжатия : С потерями
Размер потока : 102 Мбайт (9%)
Выравнивание : Разделение по промежуткам
Продолжительность промежутка : 40 мс. (1,00 видеокадр)
Время предзагрузки промежутка : 500 мс





   Похожие торренты   Торрент   Размер 
В этой теме нет новых непрочитанных сообщений. У твоего порога (1963) DVDRip-AVC от Youtracker

1 | 4

1.09 ГБ

В этой теме нет новых непрочитанных сообщений. У твоего порога (1963) DVDRip от Youtracker

4 | 5

745.14 МБ

В этой теме нет новых непрочитанных сообщений. Коллеги (1963) DVDRip от Youtracker

9 | 3

744.75 МБ

В этой теме нет новых непрочитанных сообщений. Коллеги (1963) DVDRip-AVC от Youtracker

13 | 8

1.46 ГБ

В этой теме нет новых непрочитанных сообщений. Коллеги (1963) DVDRip от Youtracker

51 | 7

1.46 ГБ

В этой теме нет новых непрочитанных сообщений. Я шагаю по Москве (1963) DVDRip-AVC от Youtracker

249 | 9

1.46 ГБ

В этой теме нет новых непрочитанных сообщений. Живые и Мёртвые (1963) DVDRip от Youtracker

13 | 6

2.18 ГБ




Вы не можете начинать темы
Вы не можете отвечать на сообщения
Вы не можете редактировать свои сообщения
Вы не можете удалять свои сообщения
Вы не можете добавлять вложения

Перейти:  
Для Мосгорсуда, Роскомнадзора и рекламодателей: mosgorsud-torrent[собачка]yandex.ru
 Вход
ppkBB3cker v.2 © 2008-2014 @ PPK
[ Time : 0.067s | 15 Queries | GZIP : Off ]
CGP output time : 0.037s | 5 Queries | GZIP : Off

Торрент трекер RUTOR.IN, Не можете зайти на rutor.org? Какой новый адрес рутор? Какое зеркало рутор? Не работает rutor.org и зеркала? Тогда наш торрент специально для вас. Rutor.in неофициальное зеркало rutor. В случае если у Вас заблокирован rutor или вдруг Вы не можете на него зайти, то Вы без труда сможете скачать бесплатно и без рекламы последние новинки кино, игр, сериалов и прочего у нас, на Rutor.in. Не нужно использовать прокси, чтобы зайти на рутор, достаточно воспользоваться нашим ресурсом. Все новые фильмы, игры, сериалы, книги и музыка за 2013 и 2014 годы через торрент бесплатно. Скачивайте фильмы в хорошем качестве, игры для пк, xbox, playstation без регистрации. У нас вы найдете новые Зарубежные сериалы и Русские сериалы 2013, 2014, 2015 годов. Оставайтесь с нами, качайте любимые фильмы, игры, сериалы, книги и музыку.