img image001 image001 image001 image001 image001 image001 image001 image001 image001 image001 image001 image001 image001 image001 image001

Planets Sun Sun Sun
Статистика раздачи
Автор: Снежана | Размер: 3.17 ГБ | Добавлен: 24 июл 2013
Раздают: 3    Качают: 3
Скачать торрент
Скачать торрент
Описание торрента

СообщениеДобавлено: 24 июл 2013 

#77
Информация о фильме
Оригинальное название: Салават Юлаев
Год выхода: 1940
Жанр: Исторический, драма
Режиссер: Яков Протазанов
В ролях: Андрей Файт, Нина Никитина, Арслан Мубаряков, Михаил Глузский, Николай Крючков, Георгий Милляр, Ирина Федотова, Сергей Блинников, Лев Потемкин, Михаил Болдуман
О фильме: Салават Юлаев был одним из ближайших помощников Емельяна Пугачёва. Судьба уготовила ему высочайшую историческую миссию: стать народным вождём в переломную эпоху, возглавить национально-освободительную борьбу башкир.Благодаря полководческому дару, Салават одержал много побед над регулярными войсковыми подразделениями царизма под началом хорошо обученных кадровых военных.
Страна: СССР
Студия: Союздетфильм
Продолжительность: 01:11:02
Язык: Русский
Файл
Кодек: MPEG-2
Качество: DVD-5
Видео: PAL 4:3 (720x576) VBR
Звук: Русский AC3, 1 ch





Title: Ëîêàëüíûé äèñê
Size: 3.17 Gb ( 3 326 318 KBytes ) - DVD-5
Enabled regions: 1, 2, 3, 4, 5, 6, 7, 8

VTS_01 :
Play Length: 01:11:02
Video: PAL 4:3 (720x576) VBR
Audio:
Russian (Dolby AC3, 1 ch)

VTS_02 :
Play Length:
Video: PAL 4:3 (720x576) VBR

VTS_03 :
Play Length:
Video: PAL 4:3 (720x576) VBR

Menu Video:
NTSC 4:3 (720x480) VBR
Auto Pan&Scan, Auto Letterboxed
Menu English Language Unit :
Root Menu


Общее
Полное имя : D:1АААSalavat Yulayev [DVD5]VIDEO_TSVTS_01_1.VOB
Формат : MPEG-PS
Размер файла : 1024 Мбайт
Продолжительность : 22 м.
Режим общего битрейта : Переменный
Общий поток : 6414 Кбит/сек
Библиотека кодирования : (c) 1998-2012 Womble Multimedia, Inc. / MPEG Video Wizard DVD 5.0.1.100 (03/2011) / Oct 5 2012

Видео
Идентификатор : 224 (0xE0)
Формат : MPEG Video
Версия формата : Version 2
Профиль формата : Main@Main
Параметр BVOP формата : Да
Параметр матрицы формата : По умолчанию
Параметр GOP формата : Variable
Продолжительность : 22 м.
Вид битрейта : Переменный
Битрейт : 6158 Кбит/сек
Максимальный битрейт : 9400 Кбит/сек
Ширина : 720 пикселей
Высота : 576 пикселей
Соотношение сторон : 4:3
Частота кадров : 25,000 кадров/сек
Стандарт вещания : PAL
Цветовое пространство : YUV
Субдискретизация насыщенности : 4:2:0
Битовая глубина : 8 бит
Метод сжатия : С потерями
Бит/(Пиксели*Кадры) : 0.594
TimeCode_FirstFrame : 00:00:00:00
TimeCode_Source : Group of pictures header
Размер потока : 983 Мбайт (96%)
Библиотека кодирования : (c) 1998-2012 Womble Multimedia, Inc. / MPEG Video Wizard DVD 5.0.1.100 (03/2011) / Oct 5 2012
Основные цвета : BT.601 PAL
Характеристики трансфера : BT.470 System B, BT.470 System G
Коэффициенты матрицы : BT.601

Аудио
Идентификатор : 189 (0xBD)-128 (0x80)
Формат : AC-3
Формат/Информация : Audio Coding 3
Расширение режима : CM (complete main)
Параметр Endianness формата : Big
Режим смешивания : DVD-Video
Продолжительность : 22 м.
Вид битрейта : Постоянный
Битрейт : 128 Кбит/сек
Каналы : 1 канал
Расположение каналов : Front: C
Частота : 48,0 КГц
Битовая глубина : 16 бит
Метод сжатия : С потерями
Размер потока : 20,4 Мбайт (2%)

Меню






   Похожие торренты   Торрент   Размер 
В этой теме нет новых непрочитанных сообщений. Салават Юлаев (1940) DVDRip от New-Team

26 | 6

744.25 МБ

В этой теме нет новых непрочитанных сообщений. Салават Юлаев (1940) DVDRip-AVC от New-Team

31 | 8

744.24 МБ

В этой теме нет новых непрочитанных сообщений. Салават Юлаев (1940) DVDRip от Files-x

18 | 10

1.21 ГБ

В этой теме нет новых непрочитанных сообщений. Хоккей. КХЛ 16/17. РЧ: Салават Юлаев - Динамо Мн [10.09] (2016) IPTV 1080i

0 | 0

6.61 ГБ

В этой теме нет новых непрочитанных сообщений. Хоккей. КХЛ 16/17. РЧ: Салават Юлаев - Динамо Р [06.09] (2016) IPTV 1080i

0 | 0

7.04 ГБ

В этой теме нет новых непрочитанных сообщений. Хоккей. КХЛ 2012-13. РЧ. Салават Юлаев (Уфа) - Ак Барс (Казань) [01.02] (2013) IPTVRip

0 | 3

903.58 МБ

В этой теме нет новых непрочитанных сообщений. Хоккей. КХЛ 2012-13. Кубок Гагарина. 1/8 финала. Матч №4. Салават Юлаев - Металлург [26.02] (2013) IPTVRip

0 | 2

1.56 ГБ




Вы не можете начинать темы
Вы не можете отвечать на сообщения
Вы не можете редактировать свои сообщения
Вы не можете удалять свои сообщения
Вы не можете добавлять вложения

Перейти:  
Для Мосгорсуда, Роскомнадзора и рекламодателей: mosgorsud-torrent[собачка]yandex.ru
 Вход
ppkBB3cker v.2 © 2008-2014 @ PPK
[ Time : 0.021s | 14 Queries | GZIP : Off ]

Торрент трекер RUTOR.IN, Не можете зайти на rutor.org? Какой новый адрес рутор? Какое зеркало рутор? Не работает rutor.org и зеркала? Тогда наш торрент специально для вас. Rutor.in неофициальное зеркало rutor. В случае если у Вас заблокирован rutor или вдруг Вы не можете на него зайти, то Вы без труда сможете скачать бесплатно и без рекламы последние новинки кино, игр, сериалов и прочего у нас, на Rutor.in. Не нужно использовать прокси, чтобы зайти на рутор, достаточно воспользоваться нашим ресурсом. Все новые фильмы, игры, сериалы, книги и музыка за 2013 и 2014 годы через торрент бесплатно. Скачивайте фильмы в хорошем качестве, игры для пк, xbox, playstation без регистрации. У нас вы найдете новые Зарубежные сериалы и Русские сериалы 2013, 2014, 2015 годов. Оставайтесь с нами, качайте любимые фильмы, игры, сериалы, книги и музыку.