img image001 image001 image001 image001 image001 image001 image001 image001 image001 image001 image001 image001 image001 image001 image001

Planets Sun Sun Sun
Статистика раздачи
Автор: Снежана | Размер: 744.86 МБ | Добавлен: 24 июл 2013
Раздают: 20    Качают: 5
Скачать торрент
Скачать торрент
Описание торрента

СообщениеДобавлено: 24 июл 2013 

#77

Жанр: драма, мелодрама, комедия
Год выпуска: 1986
Продолжительность: 01:28:37

Режиссёр: Карен Шахназаров

В ролях: Федор Дунаевский, Анастасия Немоляева, Олег Басилашвили, Инна Чурикова, Светлана Крючкова, Александр Панкратов-Черный, Владимир Меньшов, Алевтина Евдокимова, Евдокия Урусова

Описание: Выпускник школы Иван, дожидаясь призыва в армию, работает курьером в редакции. Окружающие его солидные взрослые люди с трудом приспосабливаются к удивительной способности этого парня любое событие превратить в невероятное происшествие - порой уморительно веселое, а, подчас, и непоправимо грустное...

Доп. информация: Полная реставрация изображения и звука. Исходные киноматериалы подготовлены Госфильмофондом России. Покадровая цифровая реставрация изображения, ремастеринг звука и авторинг проведены объединением «Крупный план».

Качество видео: BDRip | Семпл
Формат видео: AVI
Исходник: Blu-Ray
Видео: 720x304 (2.37:1), 23.976 fps, XviD build 65 ~1037 kbps avg, 0.20 bit/pixel
Аудио: 48 kHz, MPEG Layer 3, 2 ch, ~128.00 kbps avg
Общее
Полное имя : E:My_ripKurier.1986.BDRip745.[Youtracker].by.Дядя_Лёша.avi
Формат : AVI
Формат/Информация : Audio Video Interleave
Размер файла : 745 Мбайт
Продолжительность : 1 ч. 28 м.
Общий поток : 1175 Кбит/сек
Название фильма : Kurier.1986.BDRip745.[Youtracker].by.Дядя_Лёша
Программа кодирования : VirtualDubMod 1.5.10.3 | www.virtualdub-fr.org || (build 2550/release)
Правообладатель : Youtracker

Видео
Идентификатор : 0
Формат : MPEG-4 Visual
Профиль формата : Advanced Simple@L5
Параметр BVOP формата : 2
Параметр QPel формата : Нет
Параметр GMC формата : Без точки перехода
Параметр матрицы формата : Выборочная
Идентификатор кодека : XVID
Идентификатор кодека/Подсказка : XviD
Продолжительность : 1 ч. 28 м.
Битрейт : 1038 Кбит/сек
Ширина : 720 пикселей
Высота : 304 пикселя
Соотношение сторон : 2,35:1
Частота кадров : 23,976 кадра/сек
Цветовое пространство : YUV
Субдискретизация насыщенности : 4:2:0
Битовая глубина : 8 бит
Тип развёртки : Прогрессивная
Метод сжатия : С потерями
Бит/(Пиксели*Кадры) : 0.198
Размер потока : 658 Мбайт (88%)
Библиотека кодирования : XviD 65

Аудио
Идентификатор : 1
Формат : MPEG Audio
Версия формата : Version 1
Профиль формата : Layer 3
Идентификатор кодека : 55
Идентификатор кодека/Подсказка : MP3
Продолжительность : 1 ч. 28 м.
Вид битрейта : Постоянный
Битрейт : 128 Кбит/сек
Каналы : 2 канала
Частота : 48,0 КГц
Метод сжатия : С потерями
Размер потока : 81,1 Мбайт (11%)
Выравнивание : Соединение по промежуткам
Продолжительность промежутка : 42 мс. (1,00 видеокадр)
Время предзагрузки промежутка : 504 мс.
Библиотека кодирования : LAME3.99r
Настройки программы : -m s -V 4 -q 2 -lowpass 17 -b 128





Раздача от:



   Похожие торренты   Торрент   Размер 
В этой теме нет новых непрочитанных сообщений. Курьер (1986) BDRip от Youtracker

459 | 36

1.45 ГБ

В этой теме нет новых непрочитанных сообщений. Курьер (1986) BDRip от HQCLUB

44 | 6

1.45 ГБ

В этой теме нет новых непрочитанных сообщений. Курьер (1986) BDRip от HELLYWOOD

34 | 2

1.45 ГБ

В этой теме нет новых непрочитанных сообщений. Курьер (1986) BDRip-AVC от R.G. 25 Кадр

45 | 21

2.18 ГБ

В этой теме нет новых непрочитанных сообщений. Курьер (1986) BDRip 1080p

27 | 9

4.37 ГБ

В этой теме нет новых непрочитанных сообщений. Курьер (1986) BDRip от MediaClub | КПК

42 | 4

388.42 МБ

В этой теме нет новых непрочитанных сообщений. Курьер (1986) BDRip 1080p

102 | 23

9.48 ГБ




Вы не можете начинать темы
Вы не можете отвечать на сообщения
Вы не можете редактировать свои сообщения
Вы не можете удалять свои сообщения
Вы не можете добавлять вложения

Перейти:  
Для Мосгорсуда, Роскомнадзора и рекламодателей: mosgorsud-torrent[собачка]yandex.ru
 Вход
ppkBB3cker v.2 © 2008-2014 @ PPK
[ Time : 0.038s | 15 Queries | GZIP : Off ]

cron