img image001 image001 image001 image001 image001 image001 image001 image001 image001 image001 image001 image001 image001 image001 image001

Planets Sun Sun Sun
Статистика раздачи
Автор: Снежана | Размер: 1.46 ГБ | Добавлен: 24 июл 2013
Раздают: 230    Качают: 3
Скачать торрент
Скачать торрент
Описание торрента

СообщениеДобавлено: 24 июл 2013 

«Здравствуйте, я ваша тетя»



#77
Страна: СССР
Производство: Студия Горького
Жанр: комедия
Год выпуска: 1964
Продолжительность: 01:30:08

Перевод: не требуется
Оригинальная аудиодорожка: русский
Cубтитры: нет

Режиссер: Вениамин Дорман

В ролях: Юрий Яковлев, Фаина Раневская, Вера Марецкая, Ростислав Плятт, Надежда Румянцева, Всеволод Сафонов, Нинель Мышкова, Людмила Гнилова, Георгий Тусузов, Галина Водяницкая, Ефим Березин, Юрий Тимошенко, Нина Иванова, Люсьена Овчинникова, Станислав Хитров...

Описание:
Окончив химический институт и решив остаться в Москве, Бочкин устроился заведующим химчистки. Беря частные заказы, он очень быстро разбогател. Однако пришло время — и Бочкин перестал получать радость от больших денег и сомнительной известности. Выдавая себя перед новыми друзьями за научного сотрудника, после ряда недоразумений он уезжает из Москвы в Дальногорск и навсегда прощается с легкой жизнью…





Исходник: DVD9 R5
Тип релиза: DVDRip
Контейнер: AVI

Видео: 688x528 (4:3), 25 fps, XviD ~ 1854 kbps avg, 0.204 bit/pixel
Аудио: 48 kHz, Dolby AC3 5.1, 448 kbps

Раздача от:
Общее
Полное имя : Legkaja.zhizn'.1964.DVDRip_[Youtracker]_by_AVP Studio.avi
Формат : AVI
Формат/Информация : Audio Video Interleave
Размер файла : 1,46 Гбайт
Продолжительность : 1 ч. 30 м.
Общий поток : 2312 Кбит/сек
Программа кодирования : VirtualDubMod 1.5.10.3 | www.virtualdub-fr.org || (build 2550/release)
Библиотека кодирования : VirtualDubMod build 2550/release

Видео
Идентификатор : 0
Формат : MPEG-4 Visual
Профиль формата : Advanced Simple@L5
Параметр BVOP формата : 1
Параметр QPel формата : Нет
Параметр GMC формата : Без точки перехода
Параметр матрицы формата : Выборочная
Идентификатор кодека : XVID
Идентификатор кодека/Подсказка : XviD
Продолжительность : 1 ч. 30 м.
Битрейт : 1854 Кбит/сек
Ширина : 688 пикселей
Высота : 528 пикселей
Соотношение сторон : 4:3
Частота кадров : 25,000 кадров/сек
Цветовое пространство : YUV
Субдискретизация насыщенности : 4:2:0
Битовая глубина : 8 бит
Тип развёртки : Прогрессивная
Метод сжатия : С потерями
Бит/(Пиксели*Кадры) : 0.204
Размер потока : 1,17 Гбайт (80%)
Библиотека кодирования : XviD 65

Аудио
Идентификатор : 1
Формат : AC-3
Формат/Информация : Audio Coding 3
Расширение режима : CM (complete main)
Идентификатор кодека : 2000
Продолжительность : 1 ч. 30 м.
Вид битрейта : Постоянный
Битрейт : 448 Кбит/сек
Каналы : 6 каналов
Расположение каналов : Front: L C R, Side: L R, LFE
Частота : 48,0 КГц
Битовая глубина : 16 бит
Метод сжатия : С потерями
Размер потока : 289 Мбайт (19%)
Выравнивание : Разделение по промежуткам
Продолжительность промежутка : 40 мс. (1,00 видеокадр)
Время предзагрузки промежутка : 500 мс






   Похожие торренты   Торрент   Размер 
В этой теме нет новых непрочитанных сообщений. Легкая жизнь (1964) DVDRip-AVC от Youtracker

161 | 5

1.46 ГБ

В этой теме нет новых непрочитанных сообщений. Легкая жизнь (1964) DVDRip от Youtracker

24 | 2

744.32 МБ

В этой теме нет новых непрочитанных сообщений. Жаворонок (1964) DVDRip от Youtracker

20 | 7

1.46 ГБ

В этой теме нет новых непрочитанных сообщений. Гамлет (1964) DVDRip-AVC от Youtracker

174 | 4

2.18 ГБ

В этой теме нет новых непрочитанных сообщений. Жаворонок (1964) DVDRip от Youtracker

15 | 2

745.08 МБ

В этой теме нет новых непрочитанных сообщений. Жаворонок (1964) DVDRip-AVC от Youtracker

22 | 2

1.46 ГБ

В этой теме нет новых непрочитанных сообщений. Гамлет (1964) DVDRip от Youtracker

71 | 15

1.45 ГБ




Вы не можете начинать темы
Вы не можете отвечать на сообщения
Вы не можете редактировать свои сообщения
Вы не можете удалять свои сообщения
Вы не можете добавлять вложения

Перейти:  
Для Мосгорсуда, Роскомнадзора и рекламодателей: mosgorsud-torrent[собачка]yandex.ru
 Вход
ppkBB3cker v.2 © 2008-2014 @ PPK
[ Time : 0.037s | 16 Queries | GZIP : Off ]

Торрент трекер RUTOR.IN, Не можете зайти на rutor.org? Какой новый адрес рутор? Какое зеркало рутор? Не работает rutor.org и зеркала? Тогда наш торрент специально для вас. Rutor.in неофициальное зеркало rutor. В случае если у Вас заблокирован rutor или вдруг Вы не можете на него зайти, то Вы без труда сможете скачать бесплатно и без рекламы последние новинки кино, игр, сериалов и прочего у нас, на Rutor.in. Не нужно использовать прокси, чтобы зайти на рутор, достаточно воспользоваться нашим ресурсом. Все новые фильмы, игры, сериалы, книги и музыка за 2013 и 2014 годы через торрент бесплатно. Скачивайте фильмы в хорошем качестве, игры для пк, xbox, playstation без регистрации. У нас вы найдете новые Зарубежные сериалы и Русские сериалы 2013, 2014, 2015 годов. Оставайтесь с нами, качайте любимые фильмы, игры, сериалы, книги и музыку.
cron