img image001 image001 image001 image001 image001 image001 image001 image001 image001 image001 image001 image001 image001 image001 image001

Planets Sun Sun Sun
Статистика раздачи
Автор: Снежана | Размер: 3.95 ГБ | Добавлен: 24 июл 2013
Раздают: 3    Качают: 4
Скачать торрент
Скачать торрент
Описание торрента

СообщениеДобавлено: 24 июл 2013 

#77

Информация о фильме
Оригинальное название: Болевой прием
Год выхода: 1992
Жанр: Боевик
Режиссер: Георгий Кузнецов
В ролях: Валентин Белоусов, Алексей Кадочников, Сергей Вишневецкий, Андрей Рапопорт, Владимир Балагин, Александр Лавров (II), Ирина Кузнецова (III), Вадим Зайцев, Анатолий Горгуль, Александр Данильченко, Александр Ческидов, Андрей Уфимцев, Сет Овсепян, Раис Галямов
О фильме: Почти сразу после распада Советского Союза начинается эпоха «рыночных отношений». В стране вновь зарождается капитализм. Настает время передела собственности и сфер влияния между криминальными группировками. Разгорается война между бандами, в рядах которых часто оказываются и бывшие спортсмены. Особенно ценятся те, кто владеет навыками восточных единоборств. В это время в один провинциальный город приезжает группа ребят, исповедующих редкий вид рукопашной борьбы, именуемый «Русский стиль». Их появление очень встревожило главарей двух соперничающих банд, контролирующих город. Они пытаются заполучить этих ценных бойцов в свои ряды. В ход идут любые средства, и ребята вынуждены защищаться.
Страна: Россия
Студия: Кинокомпания "Евразия"
Продолжительность: 01:17:55
Язык: Русский



Файл
Кодек: MPEG-2
Качество: DVD-5
Видео: PAL 4:3 (720x576) VBR
Звук: Русский (Dolby AC3, 2 ch)



Title:
Size: 3.95 Gb ( 4 139 334 KBytes ) - DVD-5
Enabled regions: 1, 2, 3, 4, 5, 6, 7, 8

VTS_01 :
Play Length: 00:02:44+01:17:55
Video: PAL 4:3 (720x576) VBR
Audio:
Russian (Dolby AC3, 2 ch)

Menu Video:
NTSC 4:3 (720x480) VBR
Auto Pan&Scan, Auto Letterboxed
Menu Language Unit :
Chapter (PTT) Menu
Root Menu


Общее
Полное имя : D:1АААБолевой приём (DVD5)VIDEO_TSVTS_01_1.VOB
Формат : MPEG-PS
Размер файла : 1024 Мбайт
Продолжительность : 17 м.
Режим общего битрейта : Переменный
Общий поток : 8179 Кбит/сек

Видео
Идентификатор : 224 (0xE0)
Формат : MPEG Video
Версия формата : Version 2
Профиль формата : Main@Main
Параметр BVOP формата : Да
Параметр матрицы формата : Выборочная
Параметр GOP формата : Variable
Продолжительность : 17 м.
Вид битрейта : Переменный
Битрейт : 7824 Кбит/сек
Ширина : 720 пикселей
Высота : 576 пикселей
Соотношение сторон : 4:3
Частота кадров : 25,000 кадров/сек
Стандарт вещания : PAL
Цветовое пространство : YUV
Субдискретизация насыщенности : 4:2:0
Битовая глубина : 8 бит
Метод сжатия : С потерями
Бит/(Пиксели*Кадры) : 0.755
Размер потока : 980 Мбайт (96%)

Аудио
Идентификатор : 189 (0xBD)-128 (0x80)
Формат : AC-3
Формат/Информация : Audio Coding 3
Расширение режима : CM (complete main)
Параметр Endianness формата : Big
Режим смешивания : DVD-Video
Продолжительность : 17 м.
Вид битрейта : Постоянный
Битрейт : 192 Кбит/сек
Каналы : 2 канала
Расположение каналов : Front: L R
Частота : 48,0 КГц
Битовая глубина : 16 бит
Метод сжатия : С потерями
Задержка видео : -50 мс.
Размер потока : 24,0 Мбайт (2%)

Меню





   Похожие торренты   Торрент   Размер 
В этой теме нет новых непрочитанных сообщений. Болевой прием (1992) DVDRip

119 | 15

1.08 ГБ

В этой теме нет новых непрочитанных сообщений. Болевой прием (1992) DVDRip от SergV

33 | 3

1.37 ГБ

В этой теме нет новых непрочитанных сообщений. Удушающий приём / Chokeslam (2016) WEB-DLRip | L

210 | 20

1.37 ГБ

В этой теме нет новых непрочитанных сообщений. Волевой приём [01-02 из 02] (2016) HDTVRip от Files-x

4 | 0

1.17 ГБ

В этой теме нет новых непрочитанных сообщений. Волевой приём [01-02 из 02] (2016) HDTVRip-AVC от Files-x

5 | 0

1.44 ГБ

В этой теме нет новых непрочитанных сообщений. OST - Запрещенный прием / Sucker Punch (2011) MP3

26 | 5

112.74 МБ

В этой теме нет новых непрочитанных сообщений. Запрещенный прием / Sucker Punch (2011) HD | Тизер

0 | 3

86.26 МБ




Вы не можете начинать темы
Вы не можете отвечать на сообщения
Вы не можете редактировать свои сообщения
Вы не можете удалять свои сообщения
Вы не можете добавлять вложения

Перейти:  
Для Мосгорсуда, Роскомнадзора и рекламодателей: mosgorsud-torrent[собачка]yandex.ru
 Вход
ppkBB3cker v.2 © 2008-2014 @ PPK
[ Time : 0.056s | 15 Queries | GZIP : Off ]

cron