img image001 image001 image001 image001 image001 image001 image001 image001 image001 image001 image001 image001 image001 image001 image001

Planets Sun Sun Sun
Статистика раздачи
Автор: Снежана | Размер: 1.46 ГБ | Добавлен: 24 июл 2013
Раздают: 25    Качают: 13
Скачать торрент
Скачать торрент
Описание торрента

СообщениеДобавлено: 24 июл 2013 

#77
Страна: СССР
Производство: Свердловская киностудия
Жанр: приключения, детектив
Год выпуска: 1964
Продолжительность: 01:18:16

Перевод: не требуется
Оригинальная аудиодорожка: русский
Cубтитры: нет

Режиссер: Олег Николаевский

В ролях: Ада Шереметьева, Юрий Дедович, Евгений Весник, Даниил Нетребин, Павел Махотин, Игорь Сретенский, Геннадий Нилов, Владимир Протасенко, Улдис Ваздикс, Валерий Величко, Виктор Уральский, Михаил Орлов, Николай Савицкий...

Описание:
На одном из военных кораблей Северного флота недалеко от границы проходят секретные испытания нового акваланга, разработанного советским ученым. Район испытаний тщательно охраняется пограничниками. Для испытания нового акваланга собраны лучшие ныряльщики со всех флотов, за состоянием их здоровья наблюдает опытный врач, и возглавляет испытания лично изобретатель.
Уникальные возможности нового подводного дыхательного аппарата, превышающие все имеющиеся на данный момент аналоги в мире, всерьез интересуют западную разведку. Также их интересуют дневники ученого, в которых фиксируются все этапы испытаний. Для изъятия этих дневников под видом помощника врача из Москвы прилетает молодая аспирантка мединститута Балашова…





Исходник: DVB
Тип релиза: SATRip
Контейнер: AVI

Видео: 704x544 (1,294:1), 25 fps, XviD ~ 2464 kbps avg, 0.257 bit/pixel
Аудио: 48 kHz, Dolby AC3 2.0, 192 kbps

Раздача от:
Общее
Полное имя : Sled.v.okeane.1964.SATRip_[Youtracker]_by_AVP Studio.avi
Формат : AVI
Формат/Информация : Audio Video Interleave
Размер файла : 1,46 Гбайт
Продолжительность : 1 ч. 18 м.
Общий поток : 2666 Кбит/сек
Программа кодирования : VirtualDubMod 1.5.10.3 | www.virtualdub-fr.org || (build 2550/release)
Библиотека кодирования : VirtualDubMod build 2550/release

Видео
Идентификатор : 0
Формат : MPEG-4 Visual
Профиль формата : Advanced Simple@L5
Параметр BVOP формата : 1
Параметр QPel формата : Нет
Параметр GMC формата : Без точки перехода
Параметр матрицы формата : Выборочная
Идентификатор кодека : XVID
Идентификатор кодека/Подсказка : XviD
Продолжительность : 1 ч. 18 м.
Битрейт : 2464 Кбит/сек
Ширина : 704 пикселя
Высота : 544 пикселя
Соотношение сторон : 1,294
Частота кадров : 25,000 кадров/сек
Цветовое пространство : YUV
Субдискретизация насыщенности : 4:2:0
Битовая глубина : 8 бит
Тип развёртки : Прогрессивная
Метод сжатия : С потерями
Бит/(Пиксели*Кадры) : 0.257
Размер потока : 1,35 Гбайт (92%)
Библиотека кодирования : XviD 65

Аудио
Идентификатор : 1
Формат : AC-3
Формат/Информация : Audio Coding 3
Расширение режима : CM (complete main)
Идентификатор кодека : 2000
Продолжительность : 1 ч. 18 м.
Вид битрейта : Постоянный
Битрейт : 192 Кбит/сек
Каналы : 2 канала
Расположение каналов : Front: L R
Частота : 48,0 КГц
Битовая глубина : 16 бит
Метод сжатия : С потерями
Размер потока : 107 Мбайт (7%)
Выравнивание : Разделение по промежуткам
Продолжительность промежутка : 40 мс. (1,00 видеокадр)
Время предзагрузки промежутка : 500 мс





   Похожие торренты   Торрент   Размер 
В этой теме нет новых непрочитанных сообщений. След в океане (1964) SATRip от Youtracker

3 | 4

744.88 МБ

В этой теме нет новых непрочитанных сообщений. След в океане (1964) SATRip-AVC от Youtracker

12 | 6

1.46 ГБ

В этой теме нет новых непрочитанных сообщений. Один в океане (2012) SATRip

14 | 3

527.79 МБ

В этой теме нет новых непрочитанных сообщений. Жаворонок (1964) DVDRip от Youtracker

15 | 2

745.08 МБ

В этой теме нет новых непрочитанных сообщений. Ко мне, Мухтар! (1964) DVDRip-AVC от Youtracker

174 | 43

1.45 ГБ

В этой теме нет новых непрочитанных сообщений. Ко мне, Мухтар! (1964) DVDRip от Youtracker

10 | 9

744.28 МБ

В этой теме нет новых непрочитанных сообщений. Жаворонок (1964) DVDRip от Youtracker

20 | 7

1.46 ГБ




Вы не можете начинать темы
Вы не можете отвечать на сообщения
Вы не можете редактировать свои сообщения
Вы не можете удалять свои сообщения
Вы не можете добавлять вложения

Перейти:  
Для Мосгорсуда, Роскомнадзора и рекламодателей: mosgorsud-torrent[собачка]yandex.ru
 Вход
ppkBB3cker v.2 © 2008-2014 @ PPK
[ Time : 0.040s | 16 Queries | GZIP : Off ]

cron