img image001 image001 image001 image001 image001 image001 image001 image001 image001 image001 image001 image001 image001 image001 image001

Planets Sun Sun Sun
Статистика раздачи
Автор: Снежана | Размер: 744.88 МБ | Добавлен: 24 июл 2013
Раздают: 3    Качают: 4
Скачать торрент
Скачать торрент
Описание торрента

СообщениеДобавлено: 24 июл 2013 

#77
Страна: СССР
Производство: Свердловская киностудия
Жанр: приключения, детектив
Год выпуска: 1964
Продолжительность: 01:18:16

Перевод: не требуется
Оригинальная аудиодорожка: русский
Cубтитры: нет

Режиссер: Олег Николаевский

В ролях: Ада Шереметьева, Юрий Дедович, Евгений Весник, Даниил Нетребин, Павел Махотин, Игорь Сретенский, Геннадий Нилов, Владимир Протасенко, Улдис Ваздикс, Валерий Величко, Виктор Уральский, Михаил Орлов, Николай Савицкий...

Описание:
На одном из военных кораблей Северного флота недалеко от границы проходят секретные испытания нового акваланга, разработанного советским ученым. Район испытаний тщательно охраняется пограничниками. Для испытания нового акваланга собраны лучшие ныряльщики со всех флотов, за состоянием их здоровья наблюдает опытный врач, и возглавляет испытания лично изобретатель.
Уникальные возможности нового подводного дыхательного аппарата, превышающие все имеющиеся на данный момент аналоги в мире, всерьез интересуют западную разведку. Также их интересуют дневники ученого, в которых фиксируются все этапы испытаний. Для изъятия этих дневников под видом помощника врача из Москвы прилетает молодая аспирантка мединститута Балашова…





Исходник: DVB
Тип релиза: SATRip
Контейнер: AVI

Видео: 672x512 (4:3), 25 fps, XviD ~ 1193 kbps avg, 0.139 bit/pixel
Аудио: 48 kHz, MP3 2.0, 128 kbps

Раздача от:
Общее
Полное имя : Sled.v.okeane.1964.SATRip-745_[Youtracker]_by_AVP Studio.avi
Формат : AVI
Формат/Информация : Audio Video Interleave
Размер файла : 745 Мбайт
Продолжительность : 1 ч. 18 м.
Общий поток : 1331 Кбит/сек
Программа кодирования : VirtualDubMod 1.5.10.3 | www.virtualdub-fr.org || (build 2550/release)
Библиотека кодирования : VirtualDubMod build 2550/release

Видео
Идентификатор : 0
Формат : MPEG-4 Visual
Профиль формата : Advanced Simple@L5
Параметр BVOP формата : 1
Параметр QPel формата : Нет
Параметр GMC формата : Без точки перехода
Параметр матрицы формата : Выборочная
Идентификатор кодека : XVID
Идентификатор кодека/Подсказка : XviD
Продолжительность : 1 ч. 18 м.
Битрейт : 1193 Кбит/сек
Ширина : 672 пикселя
Высота : 512 пикселей
Соотношение сторон : 4:3
Частота кадров : 25,000 кадров/сек
Цветовое пространство : YUV
Субдискретизация насыщенности : 4:2:0
Битовая глубина : 8 бит
Тип развёртки : Прогрессивная
Метод сжатия : С потерями
Бит/(Пиксели*Кадры) : 0.139
Размер потока : 668 Мбайт (90%)
Библиотека кодирования : XviD 65

Аудио
Идентификатор : 1
Формат : MPEG Audio
Версия формата : Version 1
Профиль формата : Layer 3
Идентификатор кодека : 55
Идентификатор кодека/Подсказка : MP3
Продолжительность : 1 ч. 18 м.
Вид битрейта : Постоянный
Битрейт : 128 Кбит/сек
Каналы : 2 канала
Частота : 48,0 КГц
Метод сжатия : С потерями
Размер потока : 71,7 Мбайт (10%)
Выравнивание : Соединение по промежуткам
Продолжительность промежутка : 40 мс. (1,00 видеокадр)
Время предзагрузки промежутка : 504 мс.
Библиотека кодирования : L3.99r
Настройки программы : -m s -V 4 -q 2 -lowpass 17 -b 128





   Похожие торренты   Торрент   Размер 
В этой теме нет новых непрочитанных сообщений. След в океане (1964) SATRip от Youtracker

25 | 13

1.46 ГБ

В этой теме нет новых непрочитанных сообщений. След в океане (1964) SATRip-AVC от Youtracker

12 | 6

1.46 ГБ

В этой теме нет новых непрочитанных сообщений. Один в океане (2012) SATRip

14 | 3

527.79 МБ

В этой теме нет новых непрочитанных сообщений. Гамлет (1964) DVDRip от Youtracker

71 | 15

1.45 ГБ

В этой теме нет новых непрочитанных сообщений. Жаворонок (1964) DVDRip от Youtracker

15 | 2

745.08 МБ

В этой теме нет новых непрочитанных сообщений. Гамлет (1964) DVDRip-AVC от Youtracker

174 | 4

2.18 ГБ

В этой теме нет новых непрочитанных сообщений. Жаворонок (1964) DVDRip от Youtracker

20 | 7

1.46 ГБ




Вы не можете начинать темы
Вы не можете отвечать на сообщения
Вы не можете редактировать свои сообщения
Вы не можете удалять свои сообщения
Вы не можете добавлять вложения

Перейти:  
Для Мосгорсуда, Роскомнадзора и рекламодателей: mosgorsud-torrent[собачка]yandex.ru
 Вход
ppkBB3cker v.2 © 2008-2014 @ PPK
[ Time : 0.095s | 15 Queries | GZIP : Off ]

cron