img image001 image001 image001 image001 image001 image001 image001 image001 image001 image001 image001 image001 image001 image001 image001

Planets Sun Sun Sun
Статистика раздачи
Автор: Снежана | Размер: 699.95 МБ | Добавлен: 24 июл 2013
Раздают: 289    Качают: 19
Скачать торрент
Скачать торрент
Описание торрента

СообщениеДобавлено: 24 июл 2013 

#77

Информация о фильме
Название: Все умрут, а я останусь
Год выхода: 2008
Жанр: драма, арт-хаус, авторское кино
Режиссер: Валерия Гай Германика
В ролях: Полина Филоненко, Агния Кузнецова, Ольга Шувалова, Донатас Грудович, Ольга Лапшина, Инга Стрелкова-Оболдина, Гарольд Стрелков, Максим Костромыкин, Всеволод Иванов, Алексей Багдасаров

О фильме:
Жизнь никогда не бывает легкой, особенно когда тебе четырнадцать лет. Но некоторым подросткам приходится иметь дело не только со своими внутренними переживаниями и комплексами и юношеским максимализмом, но и с жестокой окружающей действительностью.

Три девятиклассницы — Катя, Вика и Жанна — самые обыкновенные девчонки из спального района Москвы. В понедельник они узнают, что в субботу в школе будет дискотека, первая в новом учебном году. Всю неделю они проживают, готовясь к этому главному в их жизни событию. Но Катя нагрубила учительнице — и дискотеку могут отменить…

Всю неделю девочки пытаются найти общий язык со своими родителями, учителями, одноклассниками и в конечном счете друг с другом. Катя остается дома, а Вика и Жанна решают пойти, ведь они так долго мечтали об этом дне. Неожиданно для всех на дискотеке появляется и Катя. И этот вечер, которого они так ждали, принесет много неожиданностей, и каждую из героинь ждет еще один удар судьбы — тот самый, после которого заканчивается детство и начинается взрослая жизнь.

Страна: Россия
Студия: ПРОФИТ
Продолжительность: 01:20:29
Перевод: Не требуется

Файл
Кодек: XviD / MP3
Качество: DVDRip
Видео: XviD, 640x368 (16:9), 25.000 fps, 1 094 Kbps (0.186 bit/pixel)
Звук: MP3, 48.0 KHz, 2 ch, 109 Kbps, VBR (Russian)

Общее
Полное имя : Все умрут, а я останусь.avi
Формат : AVI
Формат/Информация : Audio Video Interleave
Размер файла : 700 Мбайт
Продолжительность : 1 ч. 20 м.
Режим общего битрейта : Переменный
Общий поток : 1216 Кбит/сек
Программа кодирования : VirtualDubMod 1.5.4.1 (build 2178/release)
Библиотека кодирования : VirtualDubMod build 2178/release

Видео
Идентификатор : 0
Формат : MPEG-4 Visual
Профиль формата : Advanced Simple@L5
Параметр BVOP формата : 1
Параметр QPel формата : Нет
Параметр GMC формата : Без точки перехода
Параметр матрицы формата : Выборочная
Идентификатор кодека : XVID
Идентификатор кодека/Подсказка : XviD
Продолжительность : 1 ч. 20 м.
Битрейт : 1094 Кбит/сек
Ширина : 640 пикселей
Высота : 368 пикселей
Соотношение сторон : 16:9
Частота кадров : 25,000 кадров/сек
Цветовое пространство : YUV
Субдискретизация насыщенности : 4:2:0
Битовая глубина : 8 бит
Тип развёртки : Прогрессивная
Метод сжатия : С потерями
Бит/(Пиксели*Кадры) : 0.186
Размер потока : 630 Мбайт (90%)
Библиотека кодирования : XviD 1.2.0.dev47 (UTC 2006-11-01)

Аудио
Идентификатор : 1
Формат : MPEG Audio
Версия формата : Version 1
Профиль формата : Layer 3
Режим : Joint stereo
Идентификатор кодека : 55
Идентификатор кодека/Подсказка : MP3
Продолжительность : 1 ч. 20 м.
Вид битрейта : Переменный
Битрейт : 109 Кбит/сек
Номинальный битрейт : 128 Кбит/сек
Каналы : 2 канала
Частота : 48,0 КГц
Метод сжатия : С потерями
Размер потока : 62,8 Мбайт (9%)
Выравнивание : Соединение по промежуткам
Продолжительность промежутка : 24 мс. (0,60 видеокадр)
Время предзагрузки промежутка : 594 мс.
Библиотека кодирования : LAME3.97
Настройки программы : -m j -V 4 -q 2 -lowpass 17 --abr 128
Язык : Russian

Релиз от:



   Похожие торренты   Торрент   Размер 
В этой теме нет новых непрочитанных сообщений. Все умрут, а я останусь (2008) DVDRip-AVC

285 | 13

1.46 ГБ

В этой теме нет новых непрочитанных сообщений. Все умрут, а я останусь (2008) DVDRip

51 | 6

1.45 ГБ

В этой теме нет новых непрочитанных сообщений. Все болельщицы умрут / All Cheerleaders Die (2013) WEB-DLRip | L1

271 | 36

746.17 МБ

В этой теме нет новых непрочитанных сообщений. Все болельщицы умрут / All Cheerleaders Die (2013) WEB-DLRip | L1

20 | 7

746.17 МБ

В этой теме нет новых непрочитанных сообщений. Все болельщицы умрут / All Cheerleaders Die (2013) WEB-DLRip | L1

1211 | 288

1.37 ГБ

В этой теме нет новых непрочитанных сообщений. Все болельщицы умрут / All Cheerleaders Die (2013) WEB-DLRip-AVC | L1

345 | 103

1.45 ГБ

В этой теме нет новых непрочитанных сообщений. Все болельщицы умрут / All Cheerleaders Die (2013) BDRip | L1

244 | 29

1.84 ГБ




Вы не можете начинать темы
Вы не можете отвечать на сообщения
Вы не можете редактировать свои сообщения
Вы не можете удалять свои сообщения
Вы не можете добавлять вложения

Перейти:  
Для Мосгорсуда, Роскомнадзора и рекламодателей: mosgorsud-torrent[собачка]yandex.ru
 Вход
ppkBB3cker v.2 © 2008-2014 @ PPK
[ Time : 0.076s | 16 Queries | GZIP : Off ]

Торрент трекер RUTOR.IN, Не можете зайти на rutor.org? Какой новый адрес рутор? Какое зеркало рутор? Не работает rutor.org и зеркала? Тогда наш торрент специально для вас. Rutor.in неофициальное зеркало rutor. В случае если у Вас заблокирован rutor или вдруг Вы не можете на него зайти, то Вы без труда сможете скачать бесплатно и без рекламы последние новинки кино, игр, сериалов и прочего у нас, на Rutor.in. Не нужно использовать прокси, чтобы зайти на рутор, достаточно воспользоваться нашим ресурсом. Все новые фильмы, игры, сериалы, книги и музыка за 2013 и 2014 годы через торрент бесплатно. Скачивайте фильмы в хорошем качестве, игры для пк, xbox, playstation без регистрации. У нас вы найдете новые Зарубежные сериалы и Русские сериалы 2013, 2014, 2015 годов. Оставайтесь с нами, качайте любимые фильмы, игры, сериалы, книги и музыку.
cron