img image001 image001 image001 image001 image001 image001 image001 image001 image001 image001 image001 image001 image001 image001 image001

Planets Sun Sun Sun
Статистика раздачи
Автор: Снежана | Размер: 743.09 МБ | Добавлен: 24 июл 2013
Раздают: 531    Качают: 57
Скачать торрент
Скачать торрент
Описание торрента

СообщениеДобавлено: 24 июл 2013 

#77

Страна: СССР
Жанр: фантастика, комедия, приключения, семейный
Год выпуска: 1973

Продолжительность: 01:31:39


Перевод: Не требуется

Режиссер: Леонид Гайдай

В ролях: Александр Демьяненко (Александр Тимофеев, инженер-изобретатель), Юрий Яковлев (царь Иван Васильевич Грозный / управдом Иван Васильевич Бунша), Леонид Куравлёв (Жорж Милославский), Наталья Крачковская (Ульяна Андреевна Бунша), Савелий Крамаров (дьяк Феофан), Наталья Селезнёва (Зина Тимофеева), Владимир Этуш (Антон Семенович Шпак), Михаил Пуговкин (Карп Савельевич Якин), Сергей Филиппов (шведский посол), Наталья Кустинская (актриса, подруга режиссера Якина), Эдуард Бредун (спекулянт радиотоварами), Валентин Грачев (стрелец)
Дублёры: Валерий Золотухин (Жорж Милославский (вокал)), Нина Бродская (Зина Тимофеева (вокал))


Описание: Инженер-изобретатель Тимофеев сконструировал машину времени, которая соединила его квартиру с далеким шестнадцатым веком - точнее, с палатами государя Ивана Грозного. Туда-то и попадают тезка царя пенсионер-общественник Иван Васильевич Бунша и квартирный вор Жорж Милославский.
На их место в двадцатом веке «переселяется» великий государь. Поломка машины приводит ко множеству неожиданных и забавных событий...



imdb.com: 7.90 (5 788)


Качество: BDRip | Sample
Контейнер: AVI
Исходник: BD
Видео: XviD, 704x512 (1.375), 996 kbps, 23,976 fps, 0,115 bpp
Аудио: MP3 / 2.0 / 48 kHz / 128 kbps /

Полная реставрация изображения и звука. Исходные киноматериалы подготовлены Госфильмофондом России. Покадровая цифровая реставрация изображения, ремастеринг звука и авторинг проведены объединением «Крупный план».



General
Complete name : E:My_ripИван_Васильевич_меняет_профессию_1973_BDRip.[Youtracker].by.Дядя_Лёша.avi
Format : AVI
Format/Info : Audio Video Interleave
File size : 743 MiB
Duration : 1h 31mn
Overall bit rate : 1 134 Kbps
Movie name : Иван_Васильевич_меняет_профессию_1973_BDRip.[Youtracker].by.Дядя_Лёша
Writing application : VirtualDubMod 1.5.10.3 | www.virtualdub-fr.org || (build 2550/release)
Copyright : Youtracker

Video
ID : 0
Format : MPEG-4 Visual
Format profile : Advanced Simple@L5
Format settings, BVOP : 2
Format settings, QPel : No
Format settings, GMC : No warppoints
Format settings, Matrix : Custom
Codec ID : XVID
Codec ID/Hint : XviD
Duration : 1h 31mn
Bit rate : 996 Kbps
Width : 704 pixels
Height : 512 pixels
Display aspect ratio : 1.375
Frame rate : 23.976 fps
Color space : YUV
Chroma subsampling : 4:2:0
Bit depth : 8 bits
Scan type : Progressive
Compression mode : Lossy
Bits/(Pixel*Frame) : 0.115
Stream size : 653 MiB (88%)
Writing library : XviD 65

Audio
ID : 1
Format : MPEG Audio
Format version : Version 1
Format profile : Layer 3
Codec ID : 55
Codec ID/Hint : MP3
Duration : 1h 31mn
Bit rate mode : Constant
Bit rate : 128 Kbps
Channel(s) : 2 channels
Sampling rate : 48.0 KHz
Compression mode : Lossy
Stream size : 83.9 MiB (11%)
Alignment : Aligned on interleaves
Interleave, duration : 42 ms (1.00 video frame)
Interleave, preload duration : 504 ms
Writing library : LAME3.99r
Encoding settings : -m s -V 4 -q 2 -lowpass 17 -b 128

Раздача от:



   Похожие торренты   Торрент   Размер 
В этой теме нет новых непрочитанных сообщений. Иван Васильевич меняет профессию (1973) BDRip 720p от Youtracker

751 | 39

2.19 ГБ

В этой теме нет новых непрочитанных сообщений. Иван Васильевич меняет профессию (1973) BDRip 720p от Youtracker

422 | 23

4.37 ГБ

В этой теме нет новых непрочитанных сообщений. Иван Васильевич меняет профессию (1973) BDRip

1036 | 73

1.45 ГБ

В этой теме нет новых непрочитанных сообщений. Иван Васильевич меняет профессию (1973) BDRip-AVC

282 | 28

744.31 МБ

В этой теме нет новых непрочитанных сообщений. Иван Васильевич меняет профессию (1973) BDRip

937 | 43

1.46 ГБ

В этой теме нет новых непрочитанных сообщений. Иван Васильевич меняет профессию (1973) BDRip-AVC

47 | 14

2.19 ГБ

В этой теме нет новых непрочитанных сообщений. Иван Васильевич меняет профессию (1973) BDRip от HQ-ViDEO

288 | 21

1.45 ГБ




Вы не можете начинать темы
Вы не можете отвечать на сообщения
Вы не можете редактировать свои сообщения
Вы не можете удалять свои сообщения
Вы не можете добавлять вложения

Перейти:  
Для Мосгорсуда, Роскомнадзора и рекламодателей: mosgorsud-torrent[собачка]yandex.ru
 Вход
ppkBB3cker v.2 © 2008-2014 @ PPK
[ Time : 0.023s | 14 Queries | GZIP : Off ]

Торрент трекер RUTOR.IN, Не можете зайти на rutor.org? Какой новый адрес рутор? Какое зеркало рутор? Не работает rutor.org и зеркала? Тогда наш торрент специально для вас. Rutor.in неофициальное зеркало rutor. В случае если у Вас заблокирован rutor или вдруг Вы не можете на него зайти, то Вы без труда сможете скачать бесплатно и без рекламы последние новинки кино, игр, сериалов и прочего у нас, на Rutor.in. Не нужно использовать прокси, чтобы зайти на рутор, достаточно воспользоваться нашим ресурсом. Все новые фильмы, игры, сериалы, книги и музыка за 2013 и 2014 годы через торрент бесплатно. Скачивайте фильмы в хорошем качестве, игры для пк, xbox, playstation без регистрации. У нас вы найдете новые Зарубежные сериалы и Русские сериалы 2013, 2014, 2015 годов. Оставайтесь с нами, качайте любимые фильмы, игры, сериалы, книги и музыку.