img image001 image001 image001 image001 image001 image001 image001 image001 image001 image001 image001 image001 image001 image001 image001

Planets Sun Sun Sun
Статистика раздачи
Автор: Снежана | Размер: 4.37 ГБ | Добавлен: 24 июл 2013
Раздают: 422    Качают: 23
Скачать торрент
Скачать торрент
Описание торрента

СообщениеДобавлено: 24 июл 2013 

#77

Страна: СССР
Жанр: фантастика, комедия, приключения, семейный
Год выпуска: 1973

Продолжительность: 01:31:39


Перевод: Не требуется

Режиссер: Леонид Гайдай

В ролях: Александр Демьяненко (Александр Тимофеев, инженер-изобретатель), Юрий Яковлев (царь Иван Васильевич Грозный / управдом Иван Васильевич Бунша), Леонид Куравлёв (Жорж Милославский), Наталья Крачковская (Ульяна Андреевна Бунша), Савелий Крамаров (дьяк Феофан), Наталья Селезнёва (Зина Тимофеева), Владимир Этуш (Антон Семенович Шпак), Михаил Пуговкин (Карп Савельевич Якин), Сергей Филиппов (шведский посол), Наталья Кустинская (актриса, подруга режиссера Якина), Эдуард Бредун (спекулянт радиотоварами), Валентин Грачев (стрелец)

Дублёры: Валерий Золотухин (Жорж Милославский (вокал)), Нина Бродская (Зина Тимофеева (вокал))


Описание: Инженер-изобретатель Тимофеев сконструировал машину времени, которая соединила его квартиру с далеким шестнадцатым веком - точнее, с палатами государя Ивана Грозного. Туда-то и попадают тезка царя пенсионер-общественник Иван Васильевич Бунша и квартирный вор Жорж Милославский.
На их место в двадцатом веке «переселяется» великий государь. Поломка машины приводит ко множеству неожиданных и забавных событий...



imdb.com: 7.90 (5 788)


Качество: BDRip 720p| Sample
Контейнер: MKV
Исходник: BD
Видео: AVC, 992x720 (1.378), 6145 kbps, 23,976 fps, 0,359 bpp
Аудио №1: русский / AC3 / 5.1 / 48 kHz / 448 kbps / 16 bit ||
Аудио №2: русский / AC3 / 1 / 48 kHz / 224 kbps / 16 bit ||
Навигация по главам: есть



Общее
Уникальный идентификатор : 207438059707950538253956712975937979498 (0x9C0F1DF8EFA20E2AAE5B86D532DE446A)
Полное имя : E:BDИван_Васильевич_меняет_профессию_1973_BDRip_720p.[Youtracker].by.Дядя_Лёша.mkv
Формат : Matroska
Версия формата : Version 4 / Version 2
Размер файла : 4,37 Гбайт
Продолжительность : 1 ч. 31 м.
Общий поток : 6820 Кбит/сек
Дата кодирования : UTC 2013-04-15 17:10:18
Программа кодирования : mkvmerge v6.1.0 ('Old Devil') built on Mar 2 2013 14:32:37
Библиотека кодирования : libebml v1.3.0 + libmatroska v1.4.0

Видео
Идентификатор : 1
Формат : AVC
Формат/Информация : Advanced Video Codec
Профиль формата : High@L4.1
Параметр CABAC формата : Да
Параметр ReFrames формата : 11 кадров
Идентификатор кодека : V_MPEG4/ISO/AVC
Продолжительность : 1 ч. 31 м.
Битрейт : 6145 Кбит/сек
Ширина : 992 пикселя
Высота : 720 пикселей
Соотношение сторон : 1,378
Режим частоты кадров : Постоянный
Частота кадров : 23,976 кадра/сек
Цветовое пространство : YUV
Субдискретизация насыщенности : 4:2:0
Битовая глубина : 8 бит
Тип развёртки : Прогрессивная
Бит/(Пиксели*Кадры) : 0.359
Размер потока : 3,85 Гбайт (88%)
Библиотека кодирования : x264 core 130 r2273 b3065e6
Настройки программы : cabac=1 / ref=11 / deblock=1:-3:-3 / analyse=0x3:0x133 / me=umh / subme=10 / psy=1 / psy_rd=1.00:0.15 / mixed_ref=1 / me_range=24 / chroma_me=1 / trellis=2 / 8x8dct=1 / cqm=0 / deadzone=21,11 / fast_pskip=1 / chroma_qp_offset=-3 / threads=9 / lookahead_threads=1 / sliced_threads=0 / nr=0 / decimate=1 / interlaced=0 / bluray_compat=0 / constrained_intra=0 / bframes=8 / b_pyramid=2 / b_adapt=2 / b_bias=0 / direct=3 / weightb=1 / open_gop=0 / weightp=2 / keyint=240 / keyint_min=22 / scenecut=40 / intra_refresh=0 / rc_lookahead=40 / rc=2pass / mbtree=1 / bitrate=6145 / ratetol=1.0 / qcomp=0.60 / qpmin=10 / qpmax=51 / qpstep=4 / cplxblur=20.0 / qblur=0.5 / ip_ratio=1.40 / aq=1:1.00
Язык : English
Default : Да
Forced : Нет

Аудио #1
Идентификатор : 2
Формат : AC-3
Формат/Информация : Audio Coding 3
Расширение режима : CM (complete main)
Параметр Endianness формата : Big
Идентификатор кодека : A_AC3
Продолжительность : 1 ч. 31 м.
Вид битрейта : Постоянный
Битрейт : 448 Кбит/сек
Каналы : 6 каналов
Расположение каналов : Front: L C R, Side: L R, LFE
Частота : 48,0 КГц
Битовая глубина : 16 бит
Метод сжатия : С потерями
Размер потока : 294 Мбайт (7%)
Заголовок : Оригинал
Язык : Russian
Default : Да
Forced : Нет

Аудио #2
Идентификатор : 3
Формат : AC-3
Формат/Информация : Audio Coding 3
Расширение режима : CM (complete main)
Параметр Endianness формата : Big
Идентификатор кодека : A_AC3
Продолжительность : 1 ч. 31 м.
Вид битрейта : Постоянный
Битрейт : 224 Кбит/сек
Каналы : 1 канал
Расположение каналов : Front: C
Частота : 48,0 КГц
Битовая глубина : 16 бит
Метод сжатия : С потерями
Размер потока : 147 Мбайт (3%)
Заголовок : Оригинал (моно)
Язык : Russian
Default : Нет
Forced : Нет

Меню
00:00:00.000 : en:Chapter 1
00:08:01.689 : en:Chapter 2
00:12:06.684 : en:Chapter 3
00:17:05.566 : en:Chapter 4
00:22:05.699 : en:Chapter 5
00:27:41.659 : en:Chapter 6
00:31:35.810 : en:Chapter 7
00:37:12.313 : en:Chapter 8
00:46:36.126 : en:Chapter 9
00:49:43.063 : en:Chapter 10
00:59:18.638 : en:Chapter 11
01:06:17.098 : en:Chapter 12
01:09:48.225 : en:Chapter 13
01:18:32.624 : en:Chapter 14
01:23:40.015 : en:Chapter 15
01:28:22.672 : en:Chapter 16


Раздача от:



   Похожие торренты   Торрент   Размер 
В этой теме нет новых непрочитанных сообщений. Иван Васильевич меняет профессию (1973) BDRip 720p от Youtracker

751 | 39

2.19 ГБ

В этой теме нет новых непрочитанных сообщений. Иван Васильевич меняет профессию (1973) BDRip от Youtracker

531 | 57

743.09 МБ

В этой теме нет новых непрочитанных сообщений. Иван Васильевич меняет профессию (1973) BDRip-AVC 720p

12 | 14

4.37 ГБ

В этой теме нет новых непрочитанных сообщений. Иван Васильевич меняет профессию (1973) BDRip 720p

154 | 28

4.76 ГБ

В этой теме нет новых непрочитанных сообщений. Иван Васильевич меняет профессию (1973) BDRip-AVC

47 | 14

2.19 ГБ

В этой теме нет новых непрочитанных сообщений. Иван Васильевич меняет профессию (1973) BDRip-AVC

282 | 28

744.31 МБ

В этой теме нет новых непрочитанных сообщений. Иван Васильевич меняет профессию (1973) BDRip

1036 | 73

1.45 ГБ




Вы не можете начинать темы
Вы не можете отвечать на сообщения
Вы не можете редактировать свои сообщения
Вы не можете удалять свои сообщения
Вы не можете добавлять вложения

Перейти:  
Для Мосгорсуда, Роскомнадзора и рекламодателей: mosgorsud-torrent[собачка]yandex.ru
 Вход
ppkBB3cker v.2 © 2008-2014 @ PPK
[ Time : 0.520s | 13 Queries | GZIP : Off ]
CGP output time : 0.013s | 5 Queries | GZIP : Off

Торрент трекер RUTOR.IN, Не можете зайти на rutor.org? Какой новый адрес рутор? Какое зеркало рутор? Не работает rutor.org и зеркала? Тогда наш торрент специально для вас. Rutor.in неофициальное зеркало rutor. В случае если у Вас заблокирован rutor или вдруг Вы не можете на него зайти, то Вы без труда сможете скачать бесплатно и без рекламы последние новинки кино, игр, сериалов и прочего у нас, на Rutor.in. Не нужно использовать прокси, чтобы зайти на рутор, достаточно воспользоваться нашим ресурсом. Все новые фильмы, игры, сериалы, книги и музыка за 2013 и 2014 годы через торрент бесплатно. Скачивайте фильмы в хорошем качестве, игры для пк, xbox, playstation без регистрации. У нас вы найдете новые Зарубежные сериалы и Русские сериалы 2013, 2014, 2015 годов. Оставайтесь с нами, качайте любимые фильмы, игры, сериалы, книги и музыку.