img image001 image001 image001 image001 image001 image001 image001 image001 image001 image001 image001 image001 image001 image001 image001

Planets Sun Sun Sun
Статистика раздачи
Автор: Снежана | Размер: 1.97 ГБ | Добавлен: 24 июл 2013
Раздают: 12    Качают: 6
Скачать торрент
Скачать торрент
Описание торрента

СообщениеДобавлено: 24 июл 2013 

#77

Информация о фильме
Название: Волга-Волга
Год выхода: 1938
Жанр: Комедия, музыкальный
Режиссер: Григорий Александров
В ролях: Игорь Ильинский, Любовь Орлова, Павел Оленев, Андрей Тутышкин, Сергей Антимонов, Владимир Володин, Мария Миронова ст., Всеволод Санаев, Эммануил Геллер, Никита Кондратьев, Иван Чувелев, Анатолий Шалаев, Алексей Долинин

О фильме: Начальник управления мелкой кустарной промышленности Бывалов мечтает о службе в Москве. Он получает распоряжение подготовить к всесоюзному смотру участников художественной самодеятельности. Бывалов считает, что посылать в Москву некого, несмотря на то, что в городе есть два творческих коллектива. В конце концов каждая группа отправляется по Волге в столицу своим путем... Одна из первых советских музыкальных комедий, которая веселила несколько поколений кино- и телезрителей. Сегодня она кажется немного наивной, но это не умаляет обаяния игры легендарных актеров. Персонажи "Волги-Волги" будут "возрождаться" в комедиях последующих лет, подобно Огурцову из "Карнавальной ночи"... Если вам вдруг захочется "рвать и метать", вспомните, откуда пришло это выражение, - и улыбнитесь!..
Страна: СССР
Студия: Мосфильм
Продолжительность: 01:39:00
Язык: Русский

Файл
Кодек: MPEG-4 AVC
Качество: HDTVRip (AVC)
Видео: 800x576, 2400 Кбит/с, 25.000 fps
Звук: АС3, 6 ch, 448 Кбит/с



General
Complete name : E:RipsVolga-Volga.Cvetnaja.HDTVRip.AVC.mkv
Format : Matroska
File size : 1.97 GiB
Duration : 1h 38mn
Overall bit rate : 2 850 Kbps
Encoded date : UTC 2013-04-12 20:51:53
Writing application : mkvmerge v3.3.0 ('Language') built on Mar 24 2010 14:59:24
Writing library : libebml v0.8.0 + libmatroska v0.9.0

Video
ID : 1
Format : AVC
Format/Info : Advanced Video Codec
Format profile : High@L4.1
Format settings, CABAC : Yes
Format settings, ReFrames : 16 frames
Codec ID : V_MPEG4/ISO/AVC
Duration : 1h 38mn
Bit rate : 2 400 Kbps
Width : 800 pixels
Height : 576 pixels
Display aspect ratio : 1.389
Frame rate : 25.000 fps
Color space : YUV
Chroma subsampling : 4:2:0
Bit depth : 8 bits
Scan type : Progressive
Bits/(Pixel*Frame) : 0.208
Stream size : 1.62 GiB (82%)
Writing library : x264 core 92 r1510 33d382a
Encoding settings : cabac=1 / ref=16 / deblock=1:-3:-3 / analyse=0x3:0x133 / me=umh / subme=10 / psy=1 / psy_rd=1.00:0.00 / mixed_ref=1 / me_range=24 / chroma_me=1 / trellis=2 / 8x8dct=1 / cqm=0 / deadzone=21,11 / fast_pskip=1 / chroma_qp_offset=-2 / threads=6 / sliced_threads=0 / nr=0 / decimate=1 / interlaced=0 / constrained_intra=0 / bframes=8 / b_pyramid=2 / b_adapt=2 / b_bias=0 / direct=3 / wpredb=1 / wpredp=2 / keyint=250 / keyint_min=25 / scenecut=40 / intra_refresh=0 / rc_lookahead=60 / rc=2pass / mbtree=1 / bitrate=2400 / ratetol=1.0 / qcomp=0.60 / qpmin=10 / qpmax=51 / qpstep=4 / cplxblur=20.0 / qblur=0.5 / ip_ratio=1.40 / aq=1:1.00

Audio
ID : 2
Format : AC-3
Format/Info : Audio Coding 3
Mode extension : CM (complete main)
Codec ID : A_AC3
Duration : 1h 38mn
Bit rate mode : Constant
Bit rate : 448 Kbps
Channel(s) : 6 channels
Channel positions : Front: L C R, Side: L R, LFE
Sampling rate : 48.0 KHz
Bit depth : 16 bits
Stream size : 317 MiB (16%)
Title : Russian AC3 448 kbps - Mosfilm
Language : Russian



Релиз от:



   Похожие торренты   Торрент   Размер 
В этой теме нет новых непрочитанных сообщений. Волга-Волга (1938) HDTVRip 1080p от balshik | Цветная версия

55 | 13

6.02 ГБ

В этой теме нет новых непрочитанных сообщений. Волга-Волга (1938) HDTVRip от New-Team | Цветная версия

76 | 28

1.46 ГБ

В этой теме нет новых непрочитанных сообщений. Волга-Волга (1938) HDTVRip-AVC от ExKinoRay | Цветная версия

79 | 23

3.05 ГБ

В этой теме нет новых непрочитанных сообщений. Волга-Волга (1938) HDTVRip-AVC от New-Team | Цветная версия

69 | 14

1.46 ГБ

В этой теме нет новых непрочитанных сообщений. Волга-Волга (1938) HDTVRip от New-Team | Цветная версия

21 | 12

745.11 МБ

В этой теме нет новых непрочитанных сообщений. Волга-Волга (1938) DVDRip от MediaClub | КПК | Цветная версия

33 | 13

447.14 МБ

В этой теме нет новых непрочитанных сообщений. Волга-Волга (1938) DVDRip от Шкипер | Цветная версия

165 | 24

748.85 МБ




Вы не можете начинать темы
Вы не можете отвечать на сообщения
Вы не можете редактировать свои сообщения
Вы не можете удалять свои сообщения
Вы не можете добавлять вложения

Перейти:  
Для Мосгорсуда, Роскомнадзора и рекламодателей: mosgorsud-torrent[собачка]yandex.ru
 Вход
ppkBB3cker v.2 © 2008-2014 @ PPK
[ Time : 0.031s | 14 Queries | GZIP : Off ]

Торрент трекер RUTOR.IN, Не можете зайти на rutor.org? Какой новый адрес рутор? Какое зеркало рутор? Не работает rutor.org и зеркала? Тогда наш торрент специально для вас. Rutor.in неофициальное зеркало rutor. В случае если у Вас заблокирован rutor или вдруг Вы не можете на него зайти, то Вы без труда сможете скачать бесплатно и без рекламы последние новинки кино, игр, сериалов и прочего у нас, на Rutor.in. Не нужно использовать прокси, чтобы зайти на рутор, достаточно воспользоваться нашим ресурсом. Все новые фильмы, игры, сериалы, книги и музыка за 2013 и 2014 годы через торрент бесплатно. Скачивайте фильмы в хорошем качестве, игры для пк, xbox, playstation без регистрации. У нас вы найдете новые Зарубежные сериалы и Русские сериалы 2013, 2014, 2015 годов. Оставайтесь с нами, качайте любимые фильмы, игры, сериалы, книги и музыку.