img image001 image001 image001 image001 image001 image001 image001 image001 image001 image001 image001 image001 image001 image001 image001

Planets Sun Sun Sun
Статистика раздачи
Автор: Снежана | Размер: 6.81 ГБ | Добавлен: 24 июл 2013
Раздают: 129    Качают: 10
Скачать торрент
Скачать торрент
Описание торрента

СообщениеДобавлено: 24 июл 2013 

#77

Информация о фильме
Название: Стритрейсеры
Год выхода: 2008
Жанр: Боевик, гонки
Режиссер: Олег Фесенко
В ролях: Алексей Чадов, Марина Александрова, Лев Прыгунов, Алексей Гуськов, Александр Сластин, Эльвира Болгова, Николай Чиндяйкин, Станислав Бондаренко, Вадим Франчук, Евгений Филатов, Алексей Поггенполь, Антон Васильев, Владислав Третьяк, Олег Федоров

О фильме:
Они живут на предельной скорости. Они — стритрейсеры, уличные гонщики. Для них гонки — смысл жизни. Страсть, способная объединить самых разных людей. Даже таких, как Степан и Докер. Оба не только любят автомобили — они не мыслят жизни без скорости и риска. Но для одного цель никогда не оправдает средств, а для другого определяющее значение имеет лишь размер гонорара. Когда появляется дело «на миллион долларов» — организовать в один вечер угон дорогостоящих элитных автомобилей, — Докер понимает, что без заклятого друга ему не обойтись. Когда Катя, любимая девушка Докера, уходит к Степану, становится понятным, что конфликта не избежать…
Страна: Россия
Студия: Студия Черепаха
Продолжительность: 01:49:01
Перевод: Русский

Файл
Кодек: MPEG-4 AVC
Качество: BDRip 1080p
Видео: 8124 Кбит/с, 1920x816, 25.000 кадр/с
Звук: Русский (AC3, 6 ch, 640 Кбит/с)





Общее
Уникальный идентификатор : 239369820036755588587182941214280744210 (0xB414F34EAB277C3ABD18358E48C77D12)
Полное имя : Stritrejsery.2008.x264.BDRip.1080p.mkv
Формат : Matroska
Версия формата : Version 2
Размер файла : 6,81 Гбайт
Продолжительность : 1 ч. 49 м.
Общий поток : 8942 Кбит/сек
Название фильма : Stritreysery. 2008. BDRip (1080p) - Kinozal.TV-HD (by YlNiAn)
Дата кодирования : UTC 2011-05-12 16:35:59
Программа кодирования : mkvmerge v4.6.0 ('Still Crazy After All These Years') сборка от Mar 10 2011 02:50:32
Библиотека кодирования : libebml v1.2.0 + libmatroska v1.1.0

Видео
Идентификатор : 1
Формат : AVC
Формат/Информация : Advanced Video Codec
Профиль формата : High@L4.1
Параметр CABAC формата : Да
Параметр ReFrames формата : 5 кадров
Идентификатор кодека : V_MPEG4/ISO/AVC
Продолжительность : 1 ч. 49 м.
Битрейт : 8124 Кбит/сек
Ширина : 1920 пикселей
Высота : 816 пикселей
Соотношение сторон : 2,35:1
Частота кадров : 25,000 кадров/сек
Цветовое пространство : YUV
Субдискретизация насыщенности : 4:2:0
Битовая глубина : 8 бит
Тип развёртки : Прогрессивная
Бит/(Пиксели*Кадры) : 0.207
Размер потока : 6,19 Гбайт (91%)
Заголовок : Stritreysery. 2008. BDRip (1080p)
Библиотека кодирования : x264 core 112 r1834 a51816a
Настройки программы : cabac=1 / ref=5 / deblock=1:0:0 / analyse=0x3:0x133 / me=umh / subme=7 / psy=1 / psy_rd=1.00:0.00 / mixed_ref=1 / me_range=16 / chroma_me=1 / trellis=1 / 8x8dct=1 / cqm=0 / deadzone=21,11 / fast_pskip=0 / chroma_qp_offset=-2 / threads=6 / sliced_threads=0 / nr=0 / decimate=1 / interlaced=0 / constrained_intra=0 / bframes=3 / b_pyramid=2 / b_adapt=1 / b_bias=0 / direct=1 / weightb=1 / open_gop=0 / weightp=2 / keyint=250 / keyint_min=25 / scenecut=40 / intra_refresh=0 / rc_lookahead=40 / rc=crf / mbtree=1 / crf=20.0 / qcomp=0.60 / qpmin=0 / qpmax=51 / qpstep=4 / ip_ratio=1.40 / aq=1:1.00
Язык : Russian

Аудио
Идентификатор : 2
Формат : AC-3
Формат/Информация : Audio Coding 3
Расширение режима : CM (complete main)
Идентификатор кодека : A_AC3
Продолжительность : 1 ч. 49 м.
Вид битрейта : Постоянный
Битрейт : 640 Кбит/сек
Каналы : 6 каналов
Расположение каналов : Front: L C R, Side: L R, LFE
Частота : 48,0 КГц
Битовая глубина : 16 бит
Метод сжатия : С потерями
Размер потока : 499 Мбайт (7%)
Заголовок : AC3 5.1 640 kbps
Язык : Russian



   Похожие торренты   Торрент   Размер 
В этой теме нет новых непрочитанных сообщений. Стритрейсеры (2008) BDRip от HQCLUB

290 | 15

1.45 ГБ

В этой теме нет новых непрочитанных сообщений. Стритрейсеры (2008) BDRip | Лицензия

189 | 17

2.05 ГБ

В этой теме нет новых непрочитанных сообщений. Стритрейсеры (2008) BDRip 720p

55 | 64

3.96 ГБ

В этой теме нет новых непрочитанных сообщений. Стритрейсеры (2008) BDRip от NovaLan

60 | 2

1.74 ГБ

В этой теме нет новых непрочитанных сообщений. Стритрейсеры (2008) MP3

0 | 3

84.7 МБ

В этой теме нет новых непрочитанных сообщений. Стритрейсеры (2008) MP3

1 | 3

11.2 ГБ

В этой теме нет новых непрочитанных сообщений. Стритрейсеры (2008) DVDRip

21 | 5

1.37 ГБ




Вы не можете начинать темы
Вы не можете отвечать на сообщения
Вы не можете редактировать свои сообщения
Вы не можете удалять свои сообщения
Вы не можете добавлять вложения

Перейти:  
Для Мосгорсуда, Роскомнадзора и рекламодателей: mosgorsud-torrent[собачка]yandex.ru
 Вход
ppkBB3cker v.2 © 2008-2014 @ PPK
[ Time : 0.049s | 14 Queries | GZIP : Off ]

Торрент трекер RUTOR.IN, Не можете зайти на rutor.org? Какой новый адрес рутор? Какое зеркало рутор? Не работает rutor.org и зеркала? Тогда наш торрент специально для вас. Rutor.in неофициальное зеркало rutor. В случае если у Вас заблокирован rutor или вдруг Вы не можете на него зайти, то Вы без труда сможете скачать бесплатно и без рекламы последние новинки кино, игр, сериалов и прочего у нас, на Rutor.in. Не нужно использовать прокси, чтобы зайти на рутор, достаточно воспользоваться нашим ресурсом. Все новые фильмы, игры, сериалы, книги и музыка за 2013 и 2014 годы через торрент бесплатно. Скачивайте фильмы в хорошем качестве, игры для пк, xbox, playstation без регистрации. У нас вы найдете новые Зарубежные сериалы и Русские сериалы 2013, 2014, 2015 годов. Оставайтесь с нами, качайте любимые фильмы, игры, сериалы, книги и музыку.