img image001 image001 image001 image001 image001 image001 image001 image001 image001 image001 image001 image001 image001 image001 image001

Planets Sun Sun Sun
Статистика раздачи
Автор: Снежана | Размер: 1.46 ГБ | Добавлен: 24 июл 2013
Раздают: 9    Качают: 2
Скачать торрент
Скачать торрент
Описание торрента

СообщениеДобавлено: 24 июл 2013 

#77

Информация о фильме
Оригинальное название: О чём молчат девушки
Год выпуска: 2013
Жанр: Комедия
Выпущено: Россия, Централ Партнершип
Режиссер: Карен Оганесян
В ролях: Юлия Пересильд, Олеся Судзиловская, Ольга Смирнова, Таисия Вилкова, Михаил Пореченков, Ольга Тумайкина, Игорь Жижикин, Виталий Хаев



О фильме: Четыре подруги сбегают из Москвы на уикенд в солнечную Испанию, чтобы на пляже, в SPA и за коктейлями на террасе расслабиться и поболтать обо всем. Но бывают обстоятельства, в которых девушки начинают говорить о том, о чем они обычно молчат…

Файл
Качество: DVDRip-AVC
Видео: MPEG-4 AVC, 2098 Кбит/с, 720x538@1024x538
Аудио: AC3, 6 ch, 448 Кбит/с
Размер: 1.46 ГБ
Продолжительность: 01:21:57
Перевод: Оригинальный [лицензия]

Семпл
[NoImage] x264 [info]: using SAR=1/1
---[NoImage] x264 [info]: using cpu capabilities: MMX2 SSE2Fast SSSE3 SSE4.2 AVX XOP FMA4 SSEMisalign LZCNT
---[NoImage] x264 [info]: profile High, level 4.1
---[NoImage]
---[NoImage] x264 [info]: frame I:1596 Avg QP:18.34 size: 69574
---[NoImage] x264 [info]: frame P:27808 Avg QP:21.38 size: 23054
---[NoImage] x264 [info]: frame B:93538 Avg QP:24.84 size: 5736
---[NoImage] x264 [info]: consecutive B-frames: 2.5% 3.5% 11.1% 21.8% 12.0% 47.6% 1.6%
---[NoImage] x264 [info]: mb I I16..4: 10.4% 71.2% 18.4%
---[NoImage] x264 [info]: mb P I16..4: 3.1% 12.3% 1.5% P16..4: 47.0% 15.7% 12.3% 0.5% 0.1% skip: 7.5%
---[NoImage] x264 [info]: mb B I16..4: 0.2% 1.3% 0.2% B16..8: 34.0% 7.0% 1.7% direct: 4.5% skip:51.0% L0:38.7% L1:42.6% BI:18.6%
---[NoImage] x264 [info]: 8x8 transform intra:72.8% inter:64.5%
---[NoImage] x264 [info]: direct mvs spatial:94.9% temporal:5.1%
---[NoImage] x264 [info]: coded y,uvDC,uvAC intra: 77.1% 84.9% 60.0% inter: 19.4% 24.3% 9.6%
---[NoImage] x264 [info]: i16 v,h,dc,p: 23% 28% 4% 45%
---[NoImage] x264 [info]: i8 v,h,dc,ddl,ddr,vr,hd,vl,hu: 13% 13% 4% 7% 11% 13% 13% 12% 14%
---[NoImage] x264 [info]: i4 v,h,dc,ddl,ddr,vr,hd,vl,hu: 11% 15% 3% 7% 13% 13% 14% 9% 14%
---[NoImage] x264 [info]: i8c dc,h,v,p: 35% 25% 20% 20%
---[NoImage] x264 [info]: Weighted P-Frames: Y:1.2% UV:0.4%
---[NoImage] x264 [info]: ref P L0: 50.4% 14.0% 18.2% 5.3% 4.3% 3.0% 2.8% 1.7% 0.3% 0.0%
---[NoImage] x264 [info]: ref B L0: 85.7% 7.9% 3.1% 1.3% 1.0% 0.7% 0.3%
---[NoImage] x264 [info]: ref B L1: 96.5% 3.5%
---[NoImage] x264 [info]: kb/s:2096.35
---[NoImage] encoded 122942 frames, 23.21 fps, 2096.35 kb/s

бщее
Уникальный идентификатор : 186347655849993084915593561649729466064 (0x8C3140C7AC9A122DA06DAC7BF4576ED0)
Полное имя : D:Mои раздачиO.chjom.molchat.devushki.2013.DVDRip.(AVC)_kaspr.mkv
Формат : Matroska
Версия формата : Version 2
Размер файла : 1,46 Гбайт
Продолжительность : 1 ч. 21 м.
Общий поток : 2546 Кбит/сек
Название фильма : О Чём молчат девушки (Rip by kaspr)
Дата кодирования : UTC 2013-04-17 06:45:22
Программа кодирования : mkvmerge v5.7.0 ('The Whirlwind') built on Aug 7 2012 14:11:40
Библиотека кодирования : libebml v1.2.3 + libmatroska v1.3.0
Видео
Идентификатор : 1
Формат : AVC
Формат/Информация : Advanced Video Codec
Профиль формата : High@L4.1
Параметр CABAC формата : Да
Параметр ReFrames формата : 8 кадров
Идентификатор кодека : V_MPEG4/ISO/AVC
Продолжительность : 1 ч. 21 м.
Битрейт : 2098 Кбит/сек
Ширина : 1024 пикселя
Высота : 538 пикселей
Соотношение сторон : 1,903
Режим частоты кадров : Постоянный
Частота кадров : 25,000 кадров/сек
Цветовое пространство : YUV
Субдискретизация насыщенности : 4:2:0
Битовая глубина : 8 бит
Тип развёртки : Прогрессивная
Бит/(Пиксели*Кадры) : 0.152
Размер потока : 1,17 Гбайт (80%)
Заголовок : О Чём молчат девушки (Rip by kaspr)
Библиотека кодирования : x264 core 130 r2273 b3065e6
Настройки программы : cabac=1 / ref=8 / deblock=1:-3:-3 / analyse=0x3:0x133 / me=umh / subme=9 / psy=1 / psy_rd=1.00:0.10 / mixed_ref=1 / me_range=32 / chroma_me=1 / trellis=2 / 8x8dct=1 / cqm=0 / deadzone=21,11 / fast_pskip=0 / chroma_qp_offset=-3 / threads=12 / lookahead_threads=1 / sliced_threads=0 / nr=0 / decimate=0 / interlaced=0 / bluray_compat=0 / constrained_intra=0 / bframes=6 / b_pyramid=2 / b_adapt=2 / b_bias=0 / direct=3 / weightb=1 / open_gop=0 / weightp=2 / keyint=250 / keyint_min=23 / scenecut=40 / intra_refresh=0 / rc_lookahead=40 / rc=2pass / mbtree=1 / bitrate=2098 / ratetol=1.0 / qcomp=0.60 / qpmin=0 / qpmax=69 / qpstep=4 / cplxblur=20.0 / qblur=0.5 / ip_ratio=1.40 / aq=1:1.00
Default : Да
Forced : Нет
Аудио
Идентификатор : 2
Формат : AC-3
Формат/Информация : Audio Coding 3
Расширение режима : CM (complete main)
Параметр Endianness формата : Big
Идентификатор кодека : A_AC3
Продолжительность : 1 ч. 21 м.
Вид битрейта : Постоянный
Битрейт : 448 Кбит/сек
Каналы : 6 каналов
Расположение каналов : Front: L C R, Side: L R, LFE
Частота : 48,0 КГц
Битовая глубина : 16 бит
Метод сжатия : С потерями
Размер потока : 263 Мбайт (18%)
Заголовок : Дубляж
Язык : Russian
Default : Да
Forced : Нет
Меню
00:00:00.000 : en:Chapter 01
00:05:11.920 : en:Chapter 02
00:12:05.680 : en:Chapter 03
00:16:08.080 : en:Chapter 04
00:23:08.080 : en:Chapter 05
00:29:12.880 : en:Chapter 06
00:35:22.480 : en:Chapter 07
00:39:04.240 : en:Chapter 08
00:45:38.320 : en:Chapter 09
00:51:09.520 : en:Chapter 10
00:55:44.080 : en:Chapter 11
00:59:46.960 : en:Chapter 12
01:04:01.360 : en:Chapter 13
01:09:00.400 : en:Chapter 14
01:14:25.840 : en:Chapter 15
01:17:42.640 : en:Chapter 16





   Похожие торренты   Торрент   Размер 
В этой теме нет новых непрочитанных сообщений. О чём молчат девушки (2013) DVDRip | Лицензия

49 | 8

744.14 МБ

В этой теме нет новых непрочитанных сообщений. О чём молчат девушки (2013) DVDRip от Generalfilm | КПК | Лицензия

2 | 5

471.29 МБ

В этой теме нет новых непрочитанных сообщений. О чём молчат девушки (2013) DVDRip от Youtracker | лицензия

3 | 3

1.46 ГБ

В этой теме нет новых непрочитанных сообщений. О чём молчат девушки (2013) BDRip | Лицензия

51 | 7

1.37 ГБ

В этой теме нет новых непрочитанных сообщений. О чём молчат девушки (2013) BDRip от HQCLUB | Лицензия

317 | 22

1.45 ГБ

В этой теме нет новых непрочитанных сообщений. О чём молчат девушки (2013) BDRip 720p от leonardo 59 | Лицензия

26 | 6

2.98 ГБ

В этой теме нет новых непрочитанных сообщений. О чём молчат девушки (2013) BDRip 720p от potroks | Лицензия

228 | 8

2.19 ГБ




Вы не можете начинать темы
Вы не можете отвечать на сообщения
Вы не можете редактировать свои сообщения
Вы не можете удалять свои сообщения
Вы не можете добавлять вложения

Перейти:  
Для Мосгорсуда, Роскомнадзора и рекламодателей: mosgorsud-torrent[собачка]yandex.ru
 Вход
ppkBB3cker v.2 © 2008-2014 @ PPK
[ Time : 0.060s | 14 Queries | GZIP : Off ]

Торрент трекер RUTOR.IN, Не можете зайти на rutor.org? Какой новый адрес рутор? Какое зеркало рутор? Не работает rutor.org и зеркала? Тогда наш торрент специально для вас. Rutor.in неофициальное зеркало rutor. В случае если у Вас заблокирован rutor или вдруг Вы не можете на него зайти, то Вы без труда сможете скачать бесплатно и без рекламы последние новинки кино, игр, сериалов и прочего у нас, на Rutor.in. Не нужно использовать прокси, чтобы зайти на рутор, достаточно воспользоваться нашим ресурсом. Все новые фильмы, игры, сериалы, книги и музыка за 2013 и 2014 годы через торрент бесплатно. Скачивайте фильмы в хорошем качестве, игры для пк, xbox, playstation без регистрации. У нас вы найдете новые Зарубежные сериалы и Русские сериалы 2013, 2014, 2015 годов. Оставайтесь с нами, качайте любимые фильмы, игры, сериалы, книги и музыку.