img image001 image001 image001 image001 image001 image001 image001 image001 image001 image001 image001 image001 image001 image001 image001

Planets Sun Sun Sun
Статистика раздачи
Автор: Снежана | Размер: 744.44 МБ | Добавлен: 24 июл 2013
Раздают: 172    Качают: 28
Скачать торрент
Скачать торрент
Описание торрента

СообщениеДобавлено: 24 июл 2013 

#77
Страна: СССР
Производство: Мосфильм
Жанр: комедия, история
Год выпуска: 1964
Продолжительность: 01:24:40
Оригинальная аудиодорожка: русский
Cубтитры: нет

Режиссер: Константин Воинов

В ролях: Георгий Вицин, Людмила Шагалова, Лидия Смирнова, Екатерина Савинова, Жанна Прохоренко, Людмила Гурченко, Тамара Носова, Николай Крючков, Ролан Быков, Инна Макарова, Надежда Румянцева, Татьяна Конюхова, Нонна Мордюкова, Геннадий Донягин, Виктор Лазарев, Феликс Сергеев, Григорий Шпигель, Виталий Татаринов, Вадим Завьялов...
Описание: Действие фильма происходит в Москве, в XIX веке. Мелкий чиновник Миша Бальзаминов (Георгий Вицин) и его маменька (Людмила Шагалова) мечтают о браке по расчёту. Бальзаминов, ещё не поднявшись с постели, разгадывает смысл сна, обещающего скорую женитьбу. Решая, что сон должен сбыться, Миша выходит на двор, умыться. В это время к ним приезжает сваха и рассказывает о том, что она нашла Мише невесту, и что семейство Бальзаминовых приглашено к семейству невесты, к Ничкиным. Собираясь к Ничкиным, Бальзаминов уже начинает мечтать о том, как потратить приданое. Бальзаминов с маменькой идут пешком, через всю Москву, к Ничкиным. По дороге мамаша, желая представить сына невесте в более выгодном свете, учит его французским, по её мнению, словам: «променаж», «гольтепа», «ассаже». В доме Ничкиных ждут гостей. Подруга Капочки (Жанна Прохоренко), Устенька (Людмила Гурченко), инструктирует Капочку, чтобы та была смелее с женихом…





Исходник: DVD5 R5
Тип релиза: DVDRip
Контейнер: AVI

Видео: 640x480 (4:3), 25 fps, XviD ~ 1091 kbps avg, 0.142 bit/pixel
Аудио: 48 kHz, MP3 2.0, 128 kbps

Раздача от:
Общее
Полное имя : Zhenit'ba.Bal'zaminova.1964.DVDRip-745_[Youtracker]_by_AVP Studio.avi
Формат : AVI
Формат/Информация : Audio Video Interleave
Размер файла : 744 Мбайт
Продолжительность : 1 ч. 24 м.
Общий поток : 1229 Кбит/сек
Программа кодирования : VirtualDubMod 1.5.10.3 | www.virtualdub-fr.org || (build 2550/release)
Библиотека кодирования : VirtualDubMod build 2550/release

Видео
Идентификатор : 0
Формат : MPEG-4 Visual
Профиль формата : Advanced Simple@L5
Параметр BVOP формата : 1
Параметр QPel формата : Нет
Параметр GMC формата : Без точки перехода
Параметр матрицы формата : Выборочная
Идентификатор кодека : XVID
Идентификатор кодека/Подсказка : XviD
Продолжительность : 1 ч. 24 м.
Битрейт : 1091 Кбит/сек
Ширина : 640 пикселей
Высота : 480 пикселей
Соотношение сторон : 4:3
Частота кадров : 25,000 кадров/сек
Цветовое пространство : YUV
Субдискретизация насыщенности : 4:2:0
Битовая глубина : 8 бит
Тип развёртки : Прогрессивная
Метод сжатия : С потерями
Бит/(Пиксели*Кадры) : 0.142
Размер потока : 661 Мбайт (89%)
Библиотека кодирования : XviD 65

Аудио
Идентификатор : 1
Формат : MPEG Audio
Версия формата : Version 1
Профиль формата : Layer 3
Идентификатор кодека : 55
Идентификатор кодека/Подсказка : MP3
Продолжительность : 1 ч. 24 м.
Вид битрейта : Постоянный
Битрейт : 128 Кбит/сек
Каналы : 2 канала
Частота : 48,0 КГц
Метод сжатия : С потерями
Размер потока : 77,5 Мбайт (10%)
Выравнивание : Соединение по промежуткам
Продолжительность промежутка : 40 мс. (1,00 видеокадр)
Время предзагрузки промежутка : 504 мс.
Библиотека кодирования : L3.99r
Настройки программы : -m s -V 4 -q 2 -lowpass 17 -b 128





   Похожие торренты   Торрент   Размер 
В этой теме нет новых непрочитанных сообщений. Женитьба Бальзаминова (1964) DVDRip от Youtracker

186 | 20

1.46 ГБ

В этой теме нет новых непрочитанных сообщений. Женитьба Бальзаминова (1964) DVDRip-AVC от Youtracker

636 | 59

1.46 ГБ

В этой теме нет новых непрочитанных сообщений. Женитьба Бальзаминова (1964) HDTV 1080i

193 | 136

7.2 ГБ

В этой теме нет новых непрочитанных сообщений. Женитьба Бальзаминова (1964) HDDVDRip 720p от ExKinoRay

205 | 38

4.24 ГБ

В этой теме нет новых непрочитанных сообщений. Тайны советского кино. Женитьба Бальзаминова (2012) IPTVRip от Generalfilm

8 | 3

314.12 МБ

В этой теме нет новых непрочитанных сообщений. Жаворонок (1964) DVDRip от Youtracker

20 | 7

1.46 ГБ

В этой теме нет новых непрочитанных сообщений. Гамлет (1964) DVDRip от Youtracker

71 | 15

1.45 ГБ




Вы не можете начинать темы
Вы не можете отвечать на сообщения
Вы не можете редактировать свои сообщения
Вы не можете удалять свои сообщения
Вы не можете добавлять вложения

Перейти:  
Для Мосгорсуда, Роскомнадзора и рекламодателей: mosgorsud-torrent[собачка]yandex.ru
 Вход
ppkBB3cker v.2 © 2008-2014 @ PPK
[ Time : 0.731s | 14 Queries | GZIP : Off ]

Торрент трекер RUTOR.IN, Не можете зайти на rutor.org? Какой новый адрес рутор? Какое зеркало рутор? Не работает rutor.org и зеркала? Тогда наш торрент специально для вас. Rutor.in неофициальное зеркало rutor. В случае если у Вас заблокирован rutor или вдруг Вы не можете на него зайти, то Вы без труда сможете скачать бесплатно и без рекламы последние новинки кино, игр, сериалов и прочего у нас, на Rutor.in. Не нужно использовать прокси, чтобы зайти на рутор, достаточно воспользоваться нашим ресурсом. Все новые фильмы, игры, сериалы, книги и музыка за 2013 и 2014 годы через торрент бесплатно. Скачивайте фильмы в хорошем качестве, игры для пк, xbox, playstation без регистрации. У нас вы найдете новые Зарубежные сериалы и Русские сериалы 2013, 2014, 2015 годов. Оставайтесь с нами, качайте любимые фильмы, игры, сериалы, книги и музыку.