img image001 image001 image001 image001 image001 image001 image001 image001 image001 image001 image001 image001 image001 image001 image001

Planets Sun Sun Sun
Статистика раздачи
Автор: Снежана | Размер: 1.46 ГБ | Добавлен: 24 июл 2013
Раздают: 636    Качают: 59
Скачать торрент
Скачать торрент
Описание торрента

СообщениеДобавлено: 24 июл 2013 

#77
Страна: СССР
Производство: Мосфильм
Жанр: комедия, история
Год выпуска: 1964
Продолжительность: 01:24:40
Оригинальная аудиодорожка: русский
Cубтитры: нет

Режиссер: Константин Воинов

В ролях: Георгий Вицин, Людмила Шагалова, Лидия Смирнова, Екатерина Савинова, Жанна Прохоренко, Людмила Гурченко, Тамара Носова, Николай Крючков, Ролан Быков, Инна Макарова, Надежда Румянцева, Татьяна Конюхова, Нонна Мордюкова, Геннадий Донягин, Виктор Лазарев, Феликс Сергеев, Григорий Шпигель, Виталий Татаринов, Вадим Завьялов...
Описание: Действие фильма происходит в Москве, в XIX веке. Мелкий чиновник Миша Бальзаминов (Георгий Вицин) и его маменька (Людмила Шагалова) мечтают о браке по расчёту. Бальзаминов, ещё не поднявшись с постели, разгадывает смысл сна, обещающего скорую женитьбу. Решая, что сон должен сбыться, Миша выходит на двор, умыться. В это время к ним приезжает сваха и рассказывает о том, что она нашла Мише невесту, и что семейство Бальзаминовых приглашено к семейству невесты, к Ничкиным. Собираясь к Ничкиным, Бальзаминов уже начинает мечтать о том, как потратить приданое. Бальзаминов с маменькой идут пешком, через всю Москву, к Ничкиным. По дороге мамаша, желая представить сына невесте в более выгодном свете, учит его французским, по её мнению, словам: «променаж», «гольтепа», «ассаже». В доме Ничкиных ждут гостей. Подруга Капочки (Жанна Прохоренко), Устенька (Людмила Гурченко), инструктирует Капочку, чтобы та была смелее с женихом…





Исходник: DVD5 R5
Тип релиза: DVDRip-AVC
Контейнер: MKV

Видео: 720x572@768x572 (4:3), 25 fps, H264 ~ 2011 kbps avg, 0.195 bit/pixel
Аудио: 48 kHz, Dolby AC3 5.1, 448 kbps

Раздача от:
Общее
Полное имя : Zhenit'ba.Bal'zaminova.1964.DVDRip-AVC_[Youtracker]_by_AVP Studio.mkv
Формат : Matroska
Версия формата : Version 2
Размер файла : 1,46 Гбайт
Продолжительность : 1 ч. 24 м.
Общий поток : 2461 Кбит/сек
Дата кодирования : UTC 2013-04-18 03:54:45
Программа кодирования : mkvmerge v5.0.1 ('Es ist Sommer') built on Nov 6 2011 16:23:40
Библиотека кодирования : libebml v1.2.2 + libmatroska v1.3.0

Видео
Идентификатор : 1
Формат : AVC
Формат/Информация : Advanced Video Codec
Профиль формата : High@L4.1
Параметр CABAC формата : Да
Параметр ReFrames формата : 11 кадров
Идентификатор кодека : V_MPEG4/ISO/AVC
Продолжительность : 1 ч. 24 м.
Битрейт : 2011 Кбит/сек
Ширина : 720 пикселей
Высота : 572 пикселя
Соотношение сторон : 4:3
Частота кадров : 25,000 кадров/сек
Цветовое пространство : YUV
Субдискретизация насыщенности : 4:2:0
Битовая глубина : 8 бит
Тип развёртки : Прогрессивная
Бит/(Пиксели*Кадры) : 0.195
Размер потока : 1,16 Гбайт (80%)
Библиотека кодирования : x264 core 119 r2106 07efeb4
Настройки программы : cabac=1 / ref=11 / deblock=1:-3:-2 / analyse=0x3:0x113 / me=umh / subme=9 / psy=1 / psy_rd=1.00:0.20 / mixed_ref=1 / me_range=32 / chroma_me=1 / trellis=1 / 8x8dct=1 / cqm=0 / deadzone=21,11 / fast_pskip=0 / chroma_qp_offset=-3 / threads=3 / sliced_threads=0 / nr=0 / decimate=0 / interlaced=0 / bluray_compat=0 / constrained_intra=0 / bframes=8 / b_pyramid=2 / b_adapt=2 / b_bias=0 / direct=3 / weightb=1 / open_gop=0 / weightp=2 / keyint=250 / keyint_min=25 / scenecut=40 / intra_refresh=0 / rc_lookahead=60 / rc=2pass / mbtree=1 / bitrate=2011 / ratetol=1.0 / qcomp=0.60 / qpmin=0 / qpmax=69 / qpstep=4 / cplxblur=20.0 / qblur=0.5 / ip_ratio=1.40 / aq=1:1.00
Default : Да
Forced : Нет

Аудио
Идентификатор : 2
Формат : AC-3
Формат/Информация : Audio Coding 3
Расширение режима : CM (complete main)
Идентификатор кодека : A_AC3
Продолжительность : 1 ч. 24 м.
Вид битрейта : Постоянный
Битрейт : 448 Кбит/сек
Каналы : 6 каналов
Расположение каналов : Front: L C R, Side: L R, LFE
Частота : 48,0 КГц
Битовая глубина : 16 бит
Метод сжатия : С потерями
Задержка видео : 940 мс.
Размер потока : 271 Мбайт (18%)
Default : Да
Forced : Нет





   Похожие торренты   Торрент   Размер 
В этой теме нет новых непрочитанных сообщений. Женитьба Бальзаминова (1964) DVDRip от Youtracker

172 | 28

744.44 МБ

В этой теме нет новых непрочитанных сообщений. Женитьба Бальзаминова (1964) DVDRip от Youtracker

186 | 20

1.46 ГБ

В этой теме нет новых непрочитанных сообщений. Женитьба Бальзаминова (1964) HDTV 1080i

193 | 136

7.2 ГБ

В этой теме нет новых непрочитанных сообщений. Женитьба Бальзаминова (1964) HDDVDRip 720p от ExKinoRay

205 | 38

4.24 ГБ

В этой теме нет новых непрочитанных сообщений. Тайны советского кино. Женитьба Бальзаминова (2012) IPTVRip от Generalfilm

8 | 3

314.12 МБ

В этой теме нет новых непрочитанных сообщений. Жаворонок (1964) DVDRip-AVC от Youtracker

22 | 2

1.46 ГБ

В этой теме нет новых непрочитанных сообщений. Ко мне, Мухтар! (1964) DVDRip-AVC от Youtracker

174 | 43

1.45 ГБ




Вы не можете начинать темы
Вы не можете отвечать на сообщения
Вы не можете редактировать свои сообщения
Вы не можете удалять свои сообщения
Вы не можете добавлять вложения

Перейти:  
Для Мосгорсуда, Роскомнадзора и рекламодателей: mosgorsud-torrent[собачка]yandex.ru
 Вход
ppkBB3cker v.2 © 2008-2014 @ PPK
[ Time : 0.026s | 16 Queries | GZIP : Off ]

Торрент трекер RUTOR.IN, Не можете зайти на rutor.org? Какой новый адрес рутор? Какое зеркало рутор? Не работает rutor.org и зеркала? Тогда наш торрент специально для вас. Rutor.in неофициальное зеркало rutor. В случае если у Вас заблокирован rutor или вдруг Вы не можете на него зайти, то Вы без труда сможете скачать бесплатно и без рекламы последние новинки кино, игр, сериалов и прочего у нас, на Rutor.in. Не нужно использовать прокси, чтобы зайти на рутор, достаточно воспользоваться нашим ресурсом. Все новые фильмы, игры, сериалы, книги и музыка за 2013 и 2014 годы через торрент бесплатно. Скачивайте фильмы в хорошем качестве, игры для пк, xbox, playstation без регистрации. У нас вы найдете новые Зарубежные сериалы и Русские сериалы 2013, 2014, 2015 годов. Оставайтесь с нами, качайте любимые фильмы, игры, сериалы, книги и музыку.