img image001 image001 image001 image001 image001 image001 image001 image001 image001 image001 image001 image001 image001 image001 image001

Planets Sun Sun Sun
Статистика раздачи
Автор: Снежана | Размер: 4.33 ГБ | Добавлен: 24 июл 2013
Раздают: 5    Качают: 5
Скачать торрент
Скачать торрент
Описание торрента

СообщениеДобавлено: 24 июл 2013 

#77

Информация о фильме
Оригинальное название: Глупая звезда
Год выхода: 2005
Жанр: Мелодрама
Режиссер: Юрий Стыцковский
В ролях: Надежда Бабкина, Маргарита Быстрякова, Сергей Шакуров, Евгений Ефремов, Ярослав Жалнин, Валерия Ланская, Сергей Романюк, Татьяна Несвидоменко, Александра Цымбалюк
О фильме: Эля Найденова круглая сирота. Она выросла в детдоме. Но теперь ей семнадцать пришло время покидать стены приюта и начинать жить самостоятельно. Директор учреждения советует Эле непременно поступать в педагогический институт, потому что прекрасно знает о незаурядных способностях своей воспитанницы. Но девушка мечтает о карьере певицы. У нее прекрасный голос, и не воспользоваться этим талантом было бы преступлением. Однажды Найденова случайно узнает, что на телевидении совсем скоро будет проходить конкурс вокалистов «Звездные войны», победитель которого получит шанс стать звездой эстрады. На отборочный тур могут прийти все желающие. Наивная и совсем не знающая жизни Эля отправляется покорять столицу. Девушка верит в свои силы и в то, что в шоу-бизнесе все по-честному.
Страна: Россия
Студия: Стар-медиа
Продолжительность: 01:29:36
Язык: Русский



Файл
Кодек: MPEG-2
Качество: DVD-5
Видео: PAL 4:3 (720x576) VBR
Звук: Русский (Dolby AC3, 6 ch), русский (Dolby AC3, 2 ch)



Title: _____
Size: 4.33 Gb ( 4 537 342 KBytes ) - DVD-5
Enabled regions: 1, 2, 3, 4, 5, 6, 7, 8

VTS_01 :
Play Length: 01:29:36
Video: PAL 4:3 (720x576) VBR
Audio:
English (Dolby AC3, 6 ch)
English (Dolby AC3, 2 ch)


Общее
Полное имя : D:1АААGlupaja.zvezdaVIDEO_TSVTS_01_1.VOB
Формат : MPEG-PS
Размер файла : 954 Мбайт
Продолжительность : 19 м.
Общий поток : 6760 Кбит/сек

Видео
Идентификатор : 224 (0xE0)
Формат : MPEG Video
Версия формата : Version 2
Профиль формата : Main@Main
Параметр BVOP формата : Да
Параметр матрицы формата : Выборочная
Параметр GOP формата : M=3, N=15
Продолжительность : 19 м.
Битрейт : 6000 Кбит/сек
Ширина : 720 пикселей
Высота : 576 пикселей
Соотношение сторон : 4:3
Частота кадров : 25,000 кадров/сек
Стандарт вещания : PAL
Цветовое пространство : YUV
Субдискретизация насыщенности : 4:2:0
Битовая глубина : 8 бит
Тип развёртки : Прогрессивная
Метод сжатия : С потерями
Бит/(Пиксели*Кадры) : 0.579
TimeCode_FirstFrame : 00:00:00:00
TimeCode_Source : Group of pictures header
Размер потока : 845 Мбайт (89%)

Аудио #1
Идентификатор : 189 (0xBD)-128 (0x80)
Формат : AC-3
Формат/Информация : Audio Coding 3
Расширение режима : CM (complete main)
Параметр Endianness формата : Big
Режим смешивания : DVD-Video
Продолжительность : 19 м.
Вид битрейта : Постоянный
Битрейт : 448 Кбит/сек
Каналы : 6 каналов
Расположение каналов : Front: L C R, Side: L R, LFE
Частота : 48,0 КГц
Битовая глубина : 16 бит
Метод сжатия : С потерями
Размер потока : 63,2 Мбайт (7%)

Аудио #2
Идентификатор : 189 (0xBD)-129 (0x81)
Формат : AC-3
Формат/Информация : Audio Coding 3
Расширение режима : CM (complete main)
Параметр Endianness формата : Big
Режим смешивания : DVD-Video
Продолжительность : 19 м.
Вид битрейта : Постоянный
Битрейт : 192 Кбит/сек
Каналы : 2 канала
Расположение каналов : Front: L R
Частота : 48,0 КГц
Битовая глубина : 16 бит
Метод сжатия : С потерями
Размер потока : 27,1 Мбайт (3%)

Меню





   Похожие торренты   Торрент   Размер 
В этой теме нет новых непрочитанных сообщений. Глупая звезда (2007) DVDRip от KinoZalSat

50 | 5

1.34 ГБ

В этой теме нет новых непрочитанных сообщений. Торренте, глупая рука закона / Torrente, el brazo tonto de la ley (1998) DVDRip | L2

2 | 5

696.62 МБ

В этой теме нет новых непрочитанных сообщений. Звезда шерифа (Одинокая звезда) / Lone Star (1996) DVDRip

3 | 4

1.37 ГБ

В этой теме нет новых непрочитанных сообщений. Князь - Моя звезда, (2008) FLAC

18 | 1

520.43 МБ

В этой теме нет новых непрочитанных сообщений. Звезда 80 / Звезда Плейбоя / Star 80 (1983) DVDRip

6 | 2

1.51 ГБ

В этой теме нет новых непрочитанных сообщений. Торренте глупая рука закона / Torrente el brazo tonto de la ley (1998) ВDRip-AVC от Тorrent-Хzona

2 | 1

1.28 ГБ

В этой теме нет новых непрочитанных сообщений. Звезда футбола / Soccer Champ (2008) PC | Repack от R.G. ReCoding

111 | 3

457.66 МБ




Вы не можете начинать темы
Вы не можете отвечать на сообщения
Вы не можете редактировать свои сообщения
Вы не можете удалять свои сообщения
Вы не можете добавлять вложения

Перейти:  
Для Мосгорсуда, Роскомнадзора и рекламодателей: mosgorsud-torrent[собачка]yandex.ru
 Вход
ppkBB3cker v.2 © 2008-2014 @ PPK
[ Time : 0.038s | 16 Queries | GZIP : On ]

Торрент трекер RUTOR.IN, Не можете зайти на rutor.org? Какой новый адрес рутор? Какое зеркало рутор? Не работает rutor.org и зеркала? Тогда наш торрент специально для вас. Rutor.in неофициальное зеркало rutor. В случае если у Вас заблокирован rutor или вдруг Вы не можете на него зайти, то Вы без труда сможете скачать бесплатно и без рекламы последние новинки кино, игр, сериалов и прочего у нас, на Rutor.in. Не нужно использовать прокси, чтобы зайти на рутор, достаточно воспользоваться нашим ресурсом. Все новые фильмы, игры, сериалы, книги и музыка за 2013 и 2014 годы через торрент бесплатно. Скачивайте фильмы в хорошем качестве, игры для пк, xbox, playstation без регистрации. У нас вы найдете новые Зарубежные сериалы и Русские сериалы 2013, 2014, 2015 годов. Оставайтесь с нами, качайте любимые фильмы, игры, сериалы, книги и музыку.